<?xml version="1.0" standalone="no"?>
<!DOCTYPE svg PUBLIC "-//W3C//DTD SVG 1.1//EN" "http://www.w3.org/Graphics/SVG/1.1/DTD/svg11.dtd" >
<svg xmlns="http://www.w3.org/2000/svg" xmlns:xlink="http://www.w3.org/1999/xlink" version="1.1">
<metadata>
Created by FontForge 20190801 at Fri Jan  1 01:00:00 1904
 By Unknown
</metadata>
<defs>
<font id="Futura-Bold" horiz-adv-x="343" >
  <font-face 
    font-family="Futura-Bold"
    font-weight="500"
    font-stretch="normal"
    units-per-em="1000"
    panose-1="0 0 0 0 0 0 0 0 0 0"
    ascent="800"
    descent="-200"
    x-height="513"
    cap-height="754"
    bbox="-171 -264 1441 1070"
    underline-thickness="50"
    underline-position="-105"
    unicode-range="U+0020-F002"
  />
<missing-glyph 
 />
    <glyph glyph-name=".notdef" 
 />
    <glyph glyph-name="glyph1" horiz-adv-x="0" 
 />
    <glyph glyph-name="glyph2" 
 />
    <glyph glyph-name="space" unicode=" " 
 />
    <glyph glyph-name="space" unicode="&#xa0;" 
 />
    <glyph glyph-name="exclam" unicode="!" horiz-adv-x="384" 
d="M192 214q49 -1 83 -35t34 -83q0 -48 -34 -82t-83 -34t-83 34t-34 82q0 49 34 83t83 34v1zM98 256v498h189v-498h-189v0z" />
    <glyph glyph-name="quotedbl" unicode="&#x22;" horiz-adv-x="500" 
d="M47 754h170l-27 -331h-116l-27 331v0zM283 754h170l-27 -331h-116l-27 331v0z" />
    <glyph glyph-name="numbersign" unicode="#" horiz-adv-x="686" 
d="M265 726h106l-39 -203h101l39 203h105l-39 -203h80v-113h-98l-24 -124h94v-113h-118l-33 -173h-106l33 173h-101l-33 -173h-106l33 173h-91v113h113l24 124h-96v113h117l39 203v0zM311 410l-24 -124h102l26 124h-104v0z" />
    <glyph glyph-name="dollar" unicode="$" horiz-adv-x="686" 
d="M68 87l82 151q27 -26 63.5 -48t74.5 -32q11 -2 22 -3.5t21 -1.5q5 0 10.5 0.5t10.5 1.5q27 5 50 22.5t23 48.5q0 30 -26 45t-64 28q-16 5 -33 10.5t-34 11.5q-1 0 -1.5 0.5t-1.5 0.5q-58 22 -106 63.5t-48 131.5q0 89 56.5 159t147.5 76v122h93v-121q7 -2 14.5 -2.5
t14.5 -2.5q40 -6 79.5 -19t73.5 -35l-74 -144q-27 21 -60 34.5t-68 13.5q-33 0 -59 -13t-26 -43q0 -24 19 -39t41 -25q10 -4 20 -7.5t18 -6.5q86 -28 151.5 -71.5t65.5 -147.5q0 -105 -56 -162.5t-154 -81.5v-124h-93v119q-33 0 -65 6t-64 18l-6 2t-5 2q-29 12 -56.5 26.5
t-50.5 35.5v1z" />
    <glyph glyph-name="percent" unicode="%" horiz-adv-x="975" 
d="M750 359q84 -1 145 -47.5t61 -136.5q0 -91 -60 -138t-146 -47t-146 47t-60 138q0 90 61 136.5t145 46.5v1zM750 259q-35 -1 -60 -26t-25 -60t25 -59.5t60 -24.5t60 24.5t25 59.5t-25 60t-60 25v1zM657 754h98l-438 -754h-98l438 754v0zM225 764q84 -1 145 -47.5
t61 -136.5q0 -91 -60 -138.5t-146 -47.5t-146 47.5t-60 138.5q0 90 61 136.5t145 46.5v1zM225 664q-35 -1 -60 -26t-25 -60t25 -59.5t60 -24.5t60 24.5t25 59.5t-25 60t-60 25v1z" />
    <glyph glyph-name="ampersand" unicode="&#x26;" horiz-adv-x="848" 
d="M603 0l-65 70q-53 -37 -115.5 -62t-127.5 -28h-7.5h-7.5q-97 0 -169.5 56t-72.5 159q0 85 45.5 132t116.5 78l18 9l-16 22q-3 3 -6 7.5t-6 8.5q-16 22 -29 48.5t-13 65.5q0 98 71.5 152.5t162.5 54.5q90 0 163 -54t73 -151q0 -70 -40.5 -111t-99.5 -70l95 -99
q28 24 53 50t46 56l111 -105l-95 -102l-9 -9l169 -178h-245v0zM431 187l-119 128q-4 -3 -7.5 -5.5t-7.5 -5.5q-21 -14 -38.5 -33.5t-17.5 -46.5q0 -30 23 -47.5t50 -20.5q3 -1 6 -1h6q28 0 55 9t50 22v1zM393 479q1 0 2.5 0.5t2.5 1.5q25 15 45 37.5t20 51.5t-18 49.5
t-48 20.5q-26 0 -44.5 -17t-18.5 -45q0 -21 12.5 -41.5t28.5 -37.5q4 -6 9 -11t9 -10v1z" />
    <glyph glyph-name="quotesingle" unicode="'" horiz-adv-x="250" 
d="M40 754h170l-27 -331h-116l-27 331v0z" />
    <glyph glyph-name="parenleft" unicode="(" horiz-adv-x="352" 
d="M194 790l109 -62q-44 -72 -70 -155t-37 -168q-4 -34 -6 -67t-2 -65q0 -43 4.5 -90.5t13.5 -96.5q13 -72 37 -141t60 -123l-109 -62q-49 64 -79.5 147.5t-46.5 169.5q-10 54 -14.5 107t-4.5 101q0 45 4.5 92.5t14.5 96.5q16 86 47.5 168t78.5 147v1z" />
    <glyph glyph-name="parenright" unicode=")" horiz-adv-x="352" 
d="M49 728l109 62q47 -66 78.5 -148t47.5 -168q10 -49 14.5 -96.5t4.5 -92.5q0 -48 -4.5 -101t-14.5 -107q-16 -86 -46.5 -169.5t-79.5 -147.5l-109 62q36 54 60 123t37 141q9 49 13.5 96.5t4.5 90.5q0 32 -2 65t-6 67q-11 85 -37 168t-70 154v1z" />
    <glyph glyph-name="asterisk" unicode="*" horiz-adv-x="483" 
d="M196 754h90l-5 -107l89 56l45 -76l-95 -50l94 -52l-45 -75l-88 57l4 -101h-90l6 100l-85 -54l-45 76l90 50l-93 51l46 76l87 -55l-5 104v0z" />
    <glyph glyph-name="plus" unicode="+" horiz-adv-x="686" 
d="M268 332v181h150v-181h181v-150h-181v-182h-150v182h-181v150h181v0z" />
    <glyph glyph-name="comma" unicode="," 
d="M152 191h171l-184 -332h-117l130 332v0z" />
    <glyph glyph-name="hyphen" unicode="-" horiz-adv-x="392" 
d="M53 396h286v-150h-286v150v0z" />
    <glyph glyph-name="period" unicode="." 
d="M172 214q49 -1 83 -35t34 -83q0 -48 -34 -82t-83 -34t-83 34t-34 82q0 49 34 83t83 34v1z" />
    <glyph glyph-name="slash" unicode="/" horiz-adv-x="579" 
d="M409 830h143l-382 -923h-143l382 923v0z" />
    <glyph glyph-name="zero" unicode="0" horiz-adv-x="686" 
d="M343 784q157 -1 233.5 -116t85.5 -253q0 -10 0.5 -19.5t0.5 -19.5t-0.5 -19.5t-0.5 -19.5q-9 -138 -85 -252.5t-234 -114.5t-234 114.5t-85 252.5q0 10 -0.5 19.5t-0.5 19.5t0.5 19.5t0.5 19.5q9 138 85.5 253t233.5 115v1zM343 611q-49 -1 -75.5 -43t-38.5 -92
q-6 -28 -8.5 -54t-2.5 -45t2.5 -45.5t8.5 -54.5q12 -51 38.5 -93t75.5 -42t75.5 42t38.5 93q6 28 8.5 54.5t2.5 45.5t-2.5 45t-8.5 54q-12 50 -38.5 92t-75.5 42v1z" />
    <glyph glyph-name="one" unicode="1" horiz-adv-x="686" 
d="M269 588h-108v166h304v-754h-196v588v0z" />
    <glyph glyph-name="two" unicode="2" horiz-adv-x="686" 
d="M392 166h247v-166h-606l308 335q33 35 59.5 83.5t26.5 100.5v2.5v3.5q-2 34 -25 63t-61 29q-40 0 -61 -27t-21 -65q0 -7 1 -15.5t2 -16.5l-216 1q5 129 83 209t211 80q119 0 205 -72.5t86 -195.5q0 -70 -24 -119t-69 -94l-14 -14t-15 -14l-117 -108v0z" />
    <glyph glyph-name="three" unicode="3" horiz-adv-x="686" 
d="M255 537h-182q6 58 29 103.5t59 77.5t85 48.5t107 16.5q101 0 171 -56.5t70 -162.5v-10t-1 -10q-3 -40 -22 -77t-56 -58q50 -13 80 -56t39 -93q2 -10 3 -20.5t1 -20.5q0 -124 -90 -186.5t-203 -62.5q-64 0 -121.5 19t-103.5 65q-24 25 -45.5 60.5t-32.5 72.5q-4 14 -6 27
t-2 26v0.5v1.5v1.5v0.5l200 1q0 -46 29.5 -77t75.5 -31q45 0 75 27.5t30 73.5q0 43 -31.5 72t-72.5 29q-9 0 -17.5 -2t-16.5 -4v132h20q38 -1 62 21t24 61q0 35 -22 55.5t-55 20.5q-37 0 -58.5 -24.5t-21.5 -60.5v-0.5v-0.5v-0.5v-0.5v1z" />
    <glyph glyph-name="four" unicode="4" horiz-adv-x="686" 
d="M564 306h91v-150h-91v-156h-182v156h-366v125l291 473h257v-448v0zM382 306v290h-2l-176 -290h178v0z" />
    <glyph glyph-name="five" unicode="5" horiz-adv-x="689" 
d="M565 588h-261l-13 -86l62 5h10.5h9.5q108 0 177.5 -79.5t69.5 -191.5q0 -59 -25 -112.5t-72 -91.5q-32 -26 -72 -39.5t-82 -18.5q-17 -2 -33.5 -3t-32.5 -1h-8.5h-8.5q-60 2 -119 18t-110 49l29 186q44 -40 98 -64t112 -24q47 0 83.5 31t36.5 80q0 62 -44.5 92.5
t-98.5 35.5q-5 0 -11 0.5t-11 0.5q-37 0 -73.5 -7.5t-70.5 -23.5l66 410h392v-166v0z" />
    <glyph glyph-name="six" unicode="6" horiz-adv-x="686" 
d="M306 754h222l-214 -255l2 -2q6 2 11.5 4t10.5 4q20 7 40 10.5t43 3.5q111 0 176.5 -80.5t65.5 -184.5q0 -139 -97.5 -211.5t-226.5 -72.5q-16 0 -33 1.5t-34 3.5q-40 7 -78.5 21t-69.5 38q-43 36 -71 89.5t-30 109.5v4v4q0 82 36 159t85 141l162 213v0zM338 124
q52 -1 86.5 35.5t34.5 88.5q0 51 -34.5 87t-86.5 36q-51 0 -87.5 -36t-36.5 -87q0 -52 36.5 -88.5t87.5 -36.5v1z" />
    <glyph glyph-name="seven" unicode="7" horiz-adv-x="686" 
d="M386 588h-315v166h619l-433 -754h-215l344 588v0z" />
    <glyph glyph-name="eight" unicode="8" horiz-adv-x="686" 
d="M343 784q97 -1 177 -54.5t80 -161.5q0 -60 -33.5 -107t-85.5 -64v-1q68 -23 109 -74t41 -125q0 -99 -71.5 -153.5t-156.5 -68.5q-15 -3 -30 -4t-30 -1t-30 1t-30 4q-85 14 -156.5 68.5t-71.5 153.5q0 74 41.5 125t108.5 73v3q-52 16 -85.5 63t-33.5 107q0 108 80 161.5
t177 53.5v1zM343 317q-37 -1 -63.5 -28.5t-26.5 -66.5q0 -38 26.5 -65t63.5 -27q38 0 64 27t26 65q0 39 -26 66.5t-64 27.5v1zM343 648q-34 -1 -58.5 -26t-24.5 -60t24.5 -60t58.5 -25q35 0 59 25t24 60t-24 60t-59 25v1z" />
    <glyph glyph-name="nine" unicode="9" horiz-adv-x="686" 
d="M381 0h-223l215 254l-2 2q-5 -3 -10 -5l-10 -4q-20 -7 -41 -11t-45 -4q-111 0 -176.5 81t-65.5 185q0 139 97.5 212t226.5 73q16 0 33 -1t34 -4q40 -6 78.5 -20.5t69.5 -39.5q44 -36 71.5 -89.5t29.5 -111.5v-3v-4q0 -82 -36 -158.5t-85 -141.5l-161 -210v0zM348 629
q-52 -1 -86.5 -37t-34.5 -88t34.5 -88t86.5 -36t88.5 36t36.5 88t-36.5 88t-88.5 36v1z" />
    <glyph glyph-name="colon" unicode=":" 
d="M172 214q49 -1 83 -35t34 -83q0 -48 -34 -82t-83 -34t-83 34t-34 82q0 49 34 83t83 34v1zM172 551q49 -1 83 -35t34 -83q0 -48 -34 -82.5t-83 -34.5t-83 34.5t-34 82.5q0 49 34 83t83 34v1z" />
    <glyph glyph-name="semicolon" unicode=";" 
d="M138 191h171l-184 -332h-117l130 332v0zM218 551q49 -1 83 -35t34 -83q0 -48 -34 -82.5t-83 -34.5t-83 34.5t-34 82.5q0 49 34 83t83 34v1z" />
    <glyph glyph-name="less" unicode="&#x3c;" horiz-adv-x="686" 
d="M99 197v120l489 182v-150l-274 -91v-2l274 -91v-150l-489 182v0z" />
    <glyph glyph-name="equal" unicode="=" horiz-adv-x="686" 
d="M87 212h512v-150h-512v150v0zM87 452h512v-150h-512v150v0z" />
    <glyph glyph-name="greater" unicode="&#x3e;" horiz-adv-x="686" 
d="M588 317v-120l-489 -182v150l274 91v2l-274 91v150l489 -182v0z" />
    <glyph glyph-name="question" unicode="?" horiz-adv-x="595" 
d="M281 214q49 -1 83 -35t34 -83q0 -48 -34 -82t-83 -34t-83 34t-34 82q0 49 34 83t83 34v1zM186 252v194q11 -3 21.5 -4.5t20.5 -1.5q7 0 15 0.5t15 2.5q37 7 68 31t31 65q0 31 -20.5 53t-52.5 22q-34 0 -52 -22t-18 -54l-199 1q1 113 84.5 173.5t189.5 60.5q47 0 92.5 -15
t82.5 -47q38 -31 62 -77t24 -96q0 -85 -52 -138.5t-129 -77.5v-70h-183v0z" />
    <glyph glyph-name="at" unicode="@" horiz-adv-x="740" 
d="M592 570l-50 -260q0 -3 -0.5 -5t-1.5 -4q-1 -4 -1.5 -8.5t-1.5 -8.5q-1 -5 -1.5 -9.5t-0.5 -9.5q0 -10 3.5 -16t12.5 -6h1.5h1.5q8 1 16.5 6.5t18.5 14.5q22 23 41 65t22 88v9.5v8.5q0 118 -78.5 181t-189.5 63q-126 0 -205.5 -86t-79.5 -217q0 -139 87 -221t215 -82
q62 0 108.5 12.5t70.5 27.5l82 -65q-52 -28 -120.5 -48t-148.5 -20q-161 0 -274.5 112t-113.5 284q0 170 111 283.5t271 113.5q66 0 126 -21t109 -66q51 -45 81.5 -104t30.5 -130q0 -62 -16 -117.5t-46 -95.5q-18 -24 -38 -41.5t-40 -27.5q-18 -10 -36 -14.5t-35 -4.5h-1.5
h-0.5h-1.5h-1.5q-21 1 -38.5 17.5t-23.5 40.5q-19 -22 -51 -40t-77 -18q-66 0 -117 54.5t-51 131.5q0 92 55.5 166.5t148.5 74.5q38 0 69.5 -15t53.5 -47l10 54h95v0zM280 354q0 -38 19.5 -65.5t56.5 -27.5q40 0 61 27.5t29 60.5q1 6 2 11.5t2 10.5t1 8.5v7.5q0 36 -20 58.5
t-53 22.5q-39 0 -66 -32t-31 -70q-1 -3 -1 -6.5v-6.5v1z" />
    <glyph glyph-name="A" unicode="A" horiz-adv-x="781" 
d="M526 131h-270l-52 -131h-208l290 754h214l284 -754h-209l-49 131v0zM473 281l-80 240h-2l-81 -240h163v0z" />
    <glyph glyph-name="B" unicode="B" horiz-adv-x="677" 
d="M366 0h-302v754h280q101 -1 162.5 -45t61.5 -152q0 -51 -18.5 -91t-64.5 -63v-1q81 -11 117.5 -62.5t36.5 -130.5q0 -118 -84.5 -163.5t-188.5 -45.5v0zM260 312v-162h25q1 -1 2.5 -1h3.5h25t26 1q37 3 68 19t31 60q0 51 -34 66t-74 16h-18.5h-18.5h-8h-8l-20 1v0z
M260 604v-146h22q1 -1 2.5 -1h3.5q37 1 68.5 14t31.5 59t-30 59t-65 14h-9.5h-9.5l-14 1v0z" />
    <glyph glyph-name="C" unicode="C" horiz-adv-x="660" 
d="M603 736v-235q-30 40 -76 61t-96 21q-90 0 -145.5 -60.5t-55.5 -148.5q0 -89 56.5 -147t147.5 -58q48 0 93 21.5t76 58.5v-234q-27 -9 -51 -15.5t-47 -11.5q-18 -4 -36.5 -6t-38.5 -2q-79 0 -151.5 28.5t-131.5 81.5q-62 56 -91.5 128.5t-29.5 156.5q0 77 28.5 149
t82.5 127t127 87.5t151 34.5h4.5h4.5q47 0 91.5 -10t87.5 -28v1z" />
    <glyph glyph-name="D" unicode="D" horiz-adv-x="752" 
d="M64 0v754h278q158 -1 270.5 -110t112.5 -268t-113 -267.5t-270 -108.5h-278v0zM260 588v-422h44q88 -1 152.5 49.5t64.5 160.5q0 101 -60 156t-155 55l-46 1v0z" />
    <glyph glyph-name="E" unicode="E" horiz-adv-x="550" 
d="M493 588h-233v-126h221v-166h-221v-130h233v-166h-429v754h429v-166v0z" />
    <glyph glyph-name="F" unicode="F" horiz-adv-x="542" 
d="M497 588h-237v-126h215v-166h-215v-296h-196v754h433v-166v0z" />
    <glyph glyph-name="G" unicode="G" horiz-adv-x="842" 
d="M427 421h389q-1 -83 -14 -155.5t-63 -143.5q-55 -77 -135.5 -112t-175.5 -35q-178 0 -290 109.5t-112 287.5q0 184 113.5 295t295.5 111q116 0 203.5 -52.5t136.5 -158.5l-186 -77q-20 53 -62 86t-101 33q-91 0 -140.5 -68t-54.5 -149q-1 -5 -1 -10.5v-10.5v-2.5v-3.5
q2 -86 53 -158t146 -72q64 0 108 33t50 98l-160 1v154v0z" />
    <glyph glyph-name="H" unicode="H" horiz-adv-x="803" 
d="M260 463h283v291h196v-754h-196v309h-283v-309h-196v754h196v-291v0z" />
    <glyph glyph-name="I" unicode="I" horiz-adv-x="324" 
d="M260 754v-754h-196v754h196v0z" />
    <glyph glyph-name="J" unicode="J" horiz-adv-x="489" 
d="M233 754h196v-509q0 -120 -62.5 -192.5t-187.5 -72.5q-63 0 -111.5 29t-81.5 81l112 120q2 -3 3.5 -5.5t3.5 -5.5q10 -12 21 -23.5t22 -19.5q7 -5 14.5 -8t14.5 -3q31 0 42 22.5t13 48.5q1 10 1 19v17v2v2v498v0z" />
    <glyph glyph-name="K" unicode="K" horiz-adv-x="758" 
d="M262 443l237 311h243l-300 -357l327 -397h-254l-253 327h-2v-327h-196v754h196v-311h2v0z" />
    <glyph glyph-name="L" unicode="L" horiz-adv-x="495" 
d="M260 754v-588h235v-166h-431v754h196v0z" />
    <glyph glyph-name="M" unicode="M" horiz-adv-x="983" 
d="M19 0l128 754h193l153 -403l162 403h195l114 -754h-196l-55 434h-2l-181 -434h-78l-173 434h-2l-63 -434h-195v0z" />
    <glyph glyph-name="N" unicode="N" horiz-adv-x="881" 
d="M64 0v754h196l359 -461h2v461h196v-754h-196l-359 462h-2v-462h-196v0z" />
    <glyph glyph-name="O" unicode="O" horiz-adv-x="887" 
d="M443 779q163 -1 290 -109.5t127 -279.5q0 -183 -117.5 -299t-299.5 -116q-181 0 -299 116t-118 299q0 171 127 279.5t290 108.5v1zM443 589q-88 -1 -150.5 -61.5t-62.5 -138.5q0 -97 62.5 -161t150.5 -64t150.5 64t62.5 161q0 78 -62.5 138.5t-150.5 60.5v1z" />
    <glyph glyph-name="P" unicode="P" horiz-adv-x="661" 
d="M64 0v754h300q122 -1 198 -60t76 -189q0 -133 -69.5 -194.5t-197.5 -61.5l-111 1v-250h-196v0zM260 596v-188h33q53 -1 97 10.5t44 80.5q0 71 -42 83.5t-99 12.5l-33 1v0z" />
    <glyph glyph-name="Q" unicode="Q" horiz-adv-x="887" 
d="M890 -19l-180 -28l-60 71q-43 -26 -94.5 -37.5t-112.5 -11.5q-181 0 -299 116t-118 299q0 171 127 279.5t290 108.5q176 0 296.5 -110t120.5 -294q0 -75 -25 -140.5t-72 -124.5l127 -128v0zM568 318l53 -55q13 17 21 38t12 43q1 7 1.5 14.5t0.5 14.5q0 85 -61.5 150
t-150.5 65q-88 0 -151 -60.5t-63 -138.5q0 -97 63 -161t151 -64q15 0 30 2.5t30 7.5l-121 121l185 23v0z" />
    <glyph glyph-name="R" unicode="R" horiz-adv-x="680" 
d="M454 309l237 -309h-244l-185 290h-2v-290h-196v754h293q112 -1 187 -56.5t75 -176.5q0 -78 -42.5 -138.5t-122.5 -74.5v1zM260 604v-188h19q5 -1 10 -1h9q44 2 80.5 20.5t36.5 73.5t-36.5 73.5t-80.5 20.5h-9h-10l-19 1v0z" />
    <glyph glyph-name="S" unicode="S" horiz-adv-x="616" 
d="M556 712l-78 -152q-27 22 -60.5 35.5t-69.5 13.5q-5 0 -11 -0.5t-12 -2.5q-23 -5 -42 -20t-19 -40q0 -24 18 -38.5t39 -23.5q8 -3 15.5 -5.5t14.5 -4.5l50 -14q79 -24 132.5 -69.5t53.5 -137.5v-8v-8q-2 -52 -19 -101.5t-59 -85.5q-38 -33 -86 -49t-98 -20
q-8 0 -15.5 -0.5t-14.5 -0.5q-71 0 -139 22.5t-126 62.5l84 159q37 -33 80.5 -56t93.5 -23h4h4q33 2 60 20.5t27 55.5q0 28 -22.5 45t-50.5 27q-12 4 -24 7.5t-22 6.5q-2 1 -4.5 1.5t-4.5 1.5q-89 25 -142 64t-53 146q0 115 73.5 184t186.5 69q23 0 47 -2.5t48 -8.5
q38 -8 74.5 -21t66.5 -30v1z" />
    <glyph glyph-name="T" unicode="T" horiz-adv-x="533" 
d="M364 588v-588h-196v588h-162v166h520v-166h-162v0z" />
    <glyph glyph-name="U" unicode="U" horiz-adv-x="778" 
d="M522 754h196v-424q0 -74 -11.5 -143t-67.5 -124q-36 -36 -85.5 -54.5t-101.5 -24.5q-16 -2 -32 -3t-31 -1t-31 1t-32 3q-52 6 -101.5 24.5t-85.5 54.5q-56 55 -67.5 124t-11.5 142v425h196v-397v-12.5v-11.5q1 -68 23.5 -125t109.5 -57t109.5 57t23.5 125v11.5v11.5v398
v0z" />
    <glyph glyph-name="V" unicode="V" horiz-adv-x="761" 
d="M198 754l182 -458l183 458h213l-322 -754h-152l-317 754h213v0z" />
    <glyph glyph-name="W" unicode="W" horiz-adv-x="1117" 
d="M189 754l131 -487h2l158 487h156l148 -487h2l142 487h204l-241 -754h-200l-132 437h-2l-148 -437h-199l-225 754h204v0z" />
    <glyph glyph-name="X" unicode="X" horiz-adv-x="789" 
d="M287 403l-241 351h241l115 -195l115 195h241l-241 -351l279 -403h-236l-158 246l-173 -246h-237l295 403v0z" />
    <glyph glyph-name="Y" unicode="Y" horiz-adv-x="714" 
d="M259 362l-278 392h235l141 -205l141 205h235l-278 -392v-362h-196v362v0z" />
    <glyph glyph-name="Z" unicode="Z" horiz-adv-x="707" 
d="M341 166h316v-166h-646l357 588h-296v166h624l-355 -588v0z" />
    <glyph glyph-name="bracketleft" unicode="[" horiz-adv-x="350" 
d="M191 684v-818h107v-106h-246v1030h246v-106h-107v0z" />
    <glyph glyph-name="backslash" unicode="\" horiz-adv-x="579" 
d="M27 830h144l381 -830h-142l-383 830v0z" />
    <glyph glyph-name="bracketright" unicode="]" horiz-adv-x="350" 
d="M159 -134v818h-107v106h246v-1030h-246v106h107v0z" />
    <glyph glyph-name="asciicircum" unicode="^" horiz-adv-x="686" 
d="M217 340l-114 67l180 377h120l180 -377l-114 -67l-126 269l-126 -269v0z" />
    <glyph glyph-name="underscore" unicode="_" horiz-adv-x="500" 
d="M500 -188h-500v75h500v-75v0z" />
    <glyph glyph-name="grave" unicode="`" horiz-adv-x="402" 
d="M75 740l111 80l141 -172l-81 -59l-171 151v0z" />
    <glyph glyph-name="a" unicode="a" horiz-adv-x="682" 
d="M621 513v-513h-182v57h-2q-22 -36 -60 -53.5t-79 -19.5q-4 -1 -8 -1h-8q-114 0 -186.5 81.5t-72.5 191.5t71.5 191.5t185.5 81.5h10t10 -1q39 -3 76.5 -19.5t62.5 -46.5v51h182v0zM328 372q-55 -1 -86 -35.5t-31 -81.5q0 -49 31 -82t86 -33q56 0 86.5 33t30.5 82
q0 47 -30.5 81.5t-86.5 34.5v1z" />
    <glyph glyph-name="b" unicode="b" horiz-adv-x="682" 
d="M54 0v830h182v-367q27 30 65.5 46.5t78.5 19.5h7.5h7.5q114 0 185.5 -81.5t71.5 -191.5q0 -111 -72 -192t-187 -81h-6h-6q-42 2 -81 19.5t-62 53.5l-2 1v-57h-182v0zM347 372q-55 -1 -86 -35.5t-31 -81.5q0 -49 31 -82t86 -33q56 0 86.5 33t30.5 82q0 47 -30.5 81.5
t-86.5 34.5v1z" />
    <glyph glyph-name="c" unicode="c" horiz-adv-x="483" 
d="M430 500v-154q-20 14 -44 24.5t-50 10.5q-52 0 -88.5 -36t-36.5 -89q0 -55 36 -90.5t92 -35.5q5 0 10.5 0.5t10.5 1.5q19 3 37.5 11.5t32.5 21.5v-153q-30 -15 -62.5 -22t-65.5 -7q-114 0 -196.5 75.5t-82.5 191.5q0 124 83 201.5t204 77.5q32 0 62.5 -7.5t57.5 -22.5v1z
" />
    <glyph glyph-name="d" unicode="d" horiz-adv-x="682" 
d="M446 0v57h-2q-22 -36 -60 -53.5t-79 -19.5q-4 -1 -8 -1h-8q-114 0 -186.5 81.5t-72.5 191.5t71.5 191.5t185.5 81.5h10t10 -1q39 -3 76.5 -19.5t62.5 -46.5v368h182v-830h-182v0zM335 372q-55 -1 -86 -35.5t-31 -81.5q0 -49 31 -82t86 -33q56 0 86.5 33t30.5 82
q0 47 -30.5 81.5t-86.5 34.5v1z" />
    <glyph glyph-name="e" unicode="e" horiz-adv-x="610" 
d="M587 245v-19h-383q0 -56 29 -85.5t85 -29.5q29 0 50.5 11t36.5 36l175 1q-22 -92 -97.5 -134t-163.5 -42q-127 0 -212 69.5t-85 202.5q0 128 79.5 201t204.5 73q134 0 207.5 -77t73.5 -208v1zM207 331h211q-7 36 -36.5 58t-66.5 22q-40 0 -70 -20.5t-38 -60.5v1z" />
    <glyph glyph-name="f" unicode="f" horiz-adv-x="388" 
d="M260 363v-363h-182v363h-64v150h64v65q0 41 4 76t23 68q5 9 11 17.5t14 17.5q34 40 80.5 61t98.5 21q21 0 40 -4t38 -14v-156q-4 1 -8.5 3t-9.5 3q-11 5 -22 7.5t-24 2.5q-35 0 -49 -21t-14 -65v-82h127v-150h-127v0z" />
    <glyph glyph-name="g" unicode="g" horiz-adv-x="677" 
d="M623 513v-463q0 -164 -77.5 -235t-219.5 -71q-19 0 -40 2t-42 7q-74 16 -137.5 62t-72.5 125h204q4 -14 13 -23.5t21 -15.5q7 -4 15 -6.5t16 -3.5q5 -1 10.5 -1.5t10.5 -0.5q74 0 95.5 42.5t21.5 103.5v25q-35 -36 -73.5 -53t-89.5 -17q-112 0 -182.5 75t-70.5 186
q0 113 72.5 195.5t190.5 82.5q45 0 84.5 -16.5t66.5 -54.5l2 1v54h182v0zM330 376q-55 -1 -86 -35.5t-31 -81.5q0 -49 31 -82t86 -33q56 0 86.5 33t30.5 82q0 47 -30.5 81.5t-86.5 34.5v1z" />
    <glyph glyph-name="h" unicode="h" horiz-adv-x="661" 
d="M60 830h182v-382h2q32 41 71.5 61t92.5 20q98 0 145.5 -59t47.5 -157v-313h-182v263v1.5v3.5q0 43 -14.5 79.5t-67.5 36.5q-52 0 -73 -36.5t-22 -79.5v-3.5v-2.5v-262h-182v830v0z" />
    <glyph glyph-name="i" unicode="i" horiz-adv-x="302" 
d="M242 513v-513h-182v513h182v0zM151 812q42 -1 72 -31t30 -72t-30 -72t-72 -30t-72 30t-30 72t30 72t72 30v1z" />
    <glyph glyph-name="j" unicode="j" horiz-adv-x="302" 
d="M242 513v-769h-182v769h182v0zM151 812q42 -1 72 -31t30 -72t-30 -72t-72 -30t-72 30t-30 72t30 72t72 30v1z" />
    <glyph glyph-name="k" unicode="k" horiz-adv-x="688" 
d="M242 830v-502l189 185h249l-257 -237l273 -276h-255l-199 209v-209h-182v830h182v0z" />
    <glyph glyph-name="l" unicode="l" horiz-adv-x="302" 
d="M242 830v-830h-182v830h182v0z" />
    <glyph glyph-name="m" unicode="m" horiz-adv-x="989" 
d="M242 513v-64h2q32 42 72.5 61t89.5 19q56 0 101.5 -23.5t73.5 -74.5q26 48 74 73t100 25q98 0 136.5 -57t38.5 -146v-326h-182v245v1v2v22t-1 24q-3 34 -17.5 62t-56.5 28q-51 0 -67.5 -33t-18.5 -72q-1 -9 -1 -18v-17v-244h-182v245v22t-1 25q-3 36 -19 66t-61 30
t-61 -30t-19 -66q-1 -13 -1 -25v-23v-244h-182v513h182v0z" />
    <glyph glyph-name="n" unicode="n" horiz-adv-x="661" 
d="M242 513v-66h2q32 46 71.5 64t92.5 18q104 0 148.5 -59t44.5 -154v-316h-182v250v5v6v19t-1 20q-2 31 -18 57.5t-63 26.5q-55 0 -75 -35.5t-20 -83.5v-265h-182v513h182v0z" />
    <glyph glyph-name="o" unicode="o" horiz-adv-x="662" 
d="M331 530q124 -1 216.5 -72.5t92.5 -202.5q0 -130 -92.5 -201t-216.5 -71q-123 0 -216 70.5t-93 201.5t92.5 202.5t216.5 71.5v1zM331 372q-55 -1 -86 -35.5t-31 -81.5q0 -49 31 -82t86 -33q56 0 86.5 33t30.5 82q0 47 -30.5 81.5t-86.5 34.5v1z" />
    <glyph glyph-name="p" unicode="p" horiz-adv-x="682" 
d="M236 513v-58h2q23 35 62 53.5t81 20.5h6h6q115 0 187 -82.5t72 -192.5q0 -111 -71.5 -191t-185.5 -80h-7.5h-7.5q-40 3 -78.5 18.5t-65.5 46.5v-304h-182v769h182v0zM347 372q-55 -1 -86 -35.5t-31 -81.5q0 -49 31 -82t86 -33q56 0 86.5 33t30.5 82q0 47 -30.5 81.5
t-86.5 34.5v1z" />
    <glyph glyph-name="q" unicode="q" horiz-adv-x="682" 
d="M628 513v-769h-182v305q-25 -31 -62.5 -46.5t-76.5 -18.5q-5 -1 -10 -1h-10q-115 0 -186 80t-71 191q0 110 72.5 192.5t186.5 82.5h8t8 -1q41 -2 79 -20.5t60 -53.5l2 1v58h182v0zM335 372q-55 -1 -86 -35.5t-31 -81.5q0 -49 31 -82t86 -33q56 0 86.5 33t30.5 82
q0 47 -30.5 81.5t-86.5 34.5v1z" />
    <glyph glyph-name="r" unicode="r" horiz-adv-x="453" 
d="M242 513v-84h2q26 46 69.5 68t96.5 22l35 1v-175q-4 1 -7.5 3t-7.5 3q-15 6 -30 8t-32 2q-76 0 -101 -44.5t-25 -110.5v-206h-182v513h182v0z" />
    <glyph glyph-name="s" unicode="s" horiz-adv-x="513" 
d="M460 497l-61 -116q-12 6 -26.5 11t-29.5 8q-11 2 -21.5 3.5t-20.5 1.5q-5 0 -10.5 -0.5t-10.5 -2.5q-14 -3 -25 -10.5t-11 -21.5q0 -17 14.5 -25.5t32.5 -12.5q10 -3 19 -4.5t16 -2.5q64 -13 106.5 -47t42.5 -105q0 -98 -72 -142.5t-159 -47.5h-5.5h-5.5q-55 0 -107.5 15
t-99.5 43l66 128q17 -13 39 -23.5t45 -18.5q16 -5 31 -8t29 -3q4 0 8.5 0.5t9.5 1.5q15 3 27 12t12 25q0 22 -21 31.5t-50 15.5q-11 2 -21.5 4.5t-21.5 5.5q-43 11 -78.5 38.5t-35.5 96.5q0 93 69 137t151 45h3.5h2.5q44 0 86.5 -7.5t82.5 -25.5v1z" />
    <glyph glyph-name="t" unicode="t" horiz-adv-x="360" 
d="M259 363v-363h-182v363h-59v150h59v154h182v-154h103v-150h-103v0z" />
    <glyph glyph-name="u" unicode="u" horiz-adv-x="659" 
d="M57 513h182v-274q0 -50 17.5 -81t73.5 -31t73.5 31t17.5 80v275h182v-309q0 -128 -78.5 -174.5t-194.5 -46.5q-115 0 -194 46.5t-79 173.5v310v0z" />
    <glyph glyph-name="v" unicode="v" horiz-adv-x="623" 
d="M189 513l123 -263l122 263h204l-268 -513h-116l-269 513h204v0z" />
    <glyph glyph-name="w" unicode="w" horiz-adv-x="996" 
d="M187 513l128 -278l129 278h108l129 -278l129 278h201l-268 -513h-118l-127 281l-127 -281h-118l-268 513h202v0z" />
    <glyph glyph-name="x" unicode="x" horiz-adv-x="712" 
d="M241 278l-208 235h231l92 -106l92 106h235l-212 -235l256 -278h-239l-132 152l-132 -152h-239l256 278v0z" />
    <glyph glyph-name="y" unicode="y" horiz-adv-x="654" 
d="M233 70l-248 443h210l137 -263l134 263h207l-411 -769h-204l175 326v0z" />
    <glyph glyph-name="z" unicode="z" horiz-adv-x="559" 
d="M312 151h216v-151h-520l241 362h-209v151h512l-240 -362v0z" />
    <glyph glyph-name="braceleft" unicode="{" horiz-adv-x="352" 
d="M36 227v104q1 -1 2 -1h2h13t14 2q15 3 27 13.5t12 37.5v254q0 51 20.5 84.5t45.5 50.5q13 9 25.5 13t21.5 4l97 1v-120h-25q-31 -1 -38.5 -17t-7.5 -36v-3v-4v-224q0 -43 -17.5 -64.5t-38.5 -31.5q-11 -5 -21.5 -7.5t-18.5 -3.5v-1q8 -2 18.5 -4t21.5 -6
q21 -9 38.5 -32.5t17.5 -75.5v-221v-1.5v-1.5q0 -21 6.5 -38.5t39.5 -17.5h25v-120h-97q-9 0 -21.5 4t-25.5 13q-25 17 -45.5 50t-20.5 84v253q0 32 -12 44.5t-27 15.5q-5 1 -10 1.5t-9 0.5h-7h-5v1z" />
    <glyph glyph-name="bar" unicode="|" horiz-adv-x="579" 
d="M365 830v-830h-150v830h150v0z" />
    <glyph glyph-name="braceright" unicode="}" horiz-adv-x="352" 
d="M316 331v-104q-2 -1 -5.5 -1h-7.5t-8.5 -0.5t-9.5 -1.5q-15 -3 -27 -15.5t-12 -45.5v-252q0 -51 -20.5 -84t-45.5 -50q-13 -9 -25.5 -13t-21.5 -4h-97v120h25q33 0 39.5 17.5t6.5 38.5v1.5v1.5v222q0 51 17.5 74.5t38.5 32.5q11 4 21.5 6t18.5 3v3q-8 0 -18.5 2.5
t-21.5 7.5q-21 10 -38.5 31.5t-17.5 63.5v226v3v3q0 20 -7.5 36t-38.5 16l-25 1v120h97q9 -1 21.5 -5t25.5 -13q25 -17 45.5 -50.5t20.5 -85.5v-252q0 -28 12 -38.5t27 -13.5q7 -2 14 -2h13h2h2v1z" />
    <glyph glyph-name="asciitilde" unicode="~" horiz-adv-x="686" 
d="M523 373l114 -97q-7 -13 -16 -27.5t-19 -29.5q-26 -37 -60.5 -68.5t-79.5 -31.5q-29 0 -53 10.5t-46 23.5q-6 4 -12 7.5t-12 6.5q-5 3 -10.5 6t-10.5 7q-27 17 -49.5 31t-41.5 14q-14 0 -27.5 -17t-23.5 -37q-4 -8 -7.5 -15.5t-6.5 -14.5l-113 97q11 12 22.5 29t23.5 34
q26 35 57.5 64t72.5 29q13 0 27 -3.5t28 -8.5q19 -8 38 -19.5t35 -24.5q11 -9 24 -17.5t27 -14.5q15 -8 30 -13t27 -5q13 0 25.5 15.5t21.5 33.5q5 10 8.5 19t6.5 16v1z" />
    <glyph glyph-name="Adieresis" unicode="&#xc4;" horiz-adv-x="781" 
d="M526 131h-270l-52 -131h-208l290 754h214l284 -754h-209l-49 131v0zM473 281l-80 240h-2l-81 -240h163v0zM263 1041q41 -1 69.5 -29.5t28.5 -69.5t-28.5 -69.5t-69.5 -28.5t-70 28.5t-29 69.5t29 69.5t70 28.5v1zM519 1041q41 -1 69.5 -29.5t28.5 -69.5t-28.5 -69.5
t-69.5 -28.5t-70 28.5t-29 69.5t29 69.5t70 28.5v1z" />
    <glyph glyph-name="Aring" unicode="&#xc5;" horiz-adv-x="781" 
d="M526 131h-270l-52 -131h-208l290 754h214l284 -754h-209l-49 131v0zM473 281l-80 240h-2l-81 -240h163v0zM389 1056q3 -1 6.5 -1h6.5q53 -3 97.5 -28.5t44.5 -86.5t-44 -87t-97 -28h-5.5h-5.5h-8.5t-9.5 1q-51 3 -94 28t-43 85q0 63 45.5 89t100.5 27h3.5h2.5v1zM391 984
q-2 -1 -4 -1h-3q-20 -2 -36 -11.5t-16 -31.5t16 -31.5t36 -11.5h3h4h4.5h4.5q19 2 34 12t15 31t-15 31t-34 12h-4.5h-4.5v1z" />
    <glyph glyph-name="Ccedilla" unicode="&#xc7;" horiz-adv-x="660" 
d="M444 -94l-151 -143l-78 49l130 158l99 -64v0zM603 736v-235q-30 40 -76 61t-96 21q-90 0 -145.5 -60.5t-55.5 -148.5q0 -89 56.5 -147t147.5 -58q48 0 93 21.5t76 58.5v-234q-27 -9 -51 -15.5t-47 -11.5q-18 -4 -36.5 -6t-38.5 -2q-79 0 -151.5 28.5t-131.5 81.5
q-62 56 -91.5 128.5t-29.5 156.5q0 77 28.5 149t82.5 127t127 87.5t151 34.5h4.5h4.5q47 0 91.5 -10t87.5 -28v1z" />
    <glyph glyph-name="Eacute" unicode="&#xc9;" horiz-adv-x="550" 
d="M493 588h-233v-126h221v-166h-221v-130h233v-166h-429v754h429v-166v0zM401 981l-171 -151l-81 59l141 172l111 -80v0z" />
    <glyph glyph-name="Ntilde" unicode="&#xd1;" horiz-adv-x="881" 
d="M64 0v754h196l359 -461h2v461h196v-754h-196l-359 462h-2v-462h-196v0zM324 857h-82l-1 11q0 23 5 45.5t17 42.5q14 23 37.5 39.5t51.5 16.5q15 0 32.5 -3.5t34.5 -8.5q5 -1 9.5 -2.5t9.5 -2.5q22 -6 42 -11.5t35 -5.5q18 0 25.5 9t13.5 24q0 1 0.5 1.5t0.5 1.5l85 1
q-1 -9 -2 -16.5t-2 -15.5q-10 -47 -40.5 -87t-85.5 -40q-11 0 -23 2t-23 6q-8 2 -16 5t-15 6q-20 6 -38.5 12t-36.5 6q-16 0 -22 -9.5t-10 -22.5q-1 -1 -1.5 -2.5t-0.5 -2.5v1z" />
    <glyph glyph-name="Odieresis" unicode="&#xd6;" horiz-adv-x="887" 
d="M443 779q163 -1 290 -109.5t127 -279.5q0 -183 -117.5 -299t-299.5 -116q-181 0 -299 116t-118 299q0 171 127 279.5t290 108.5v1zM443 589q-88 -1 -150.5 -61.5t-62.5 -138.5q0 -97 62.5 -161t150.5 -64t150.5 64t62.5 161q0 78 -62.5 138.5t-150.5 60.5v1zM316 1041
q41 -1 69.5 -29.5t28.5 -69.5t-28.5 -69.5t-69.5 -28.5t-70 28.5t-29 69.5t29 69.5t70 28.5v1zM572 1041q41 -1 69.5 -29.5t28.5 -69.5t-28.5 -69.5t-69.5 -28.5t-70 28.5t-29 69.5t29 69.5t70 28.5v1z" />
    <glyph glyph-name="Udieresis" unicode="&#xdc;" horiz-adv-x="778" 
d="M522 754h196v-424q0 -74 -11.5 -143t-67.5 -124q-36 -36 -85.5 -54.5t-101.5 -24.5q-16 -2 -32 -3t-31 -1t-31 1t-32 3q-52 6 -101.5 24.5t-85.5 54.5q-56 55 -67.5 124t-11.5 142v425h196v-397v-12.5v-11.5q1 -68 23.5 -125t109.5 -57t109.5 57t23.5 125v11.5v11.5v398
v0zM261 1041q41 -1 69.5 -29.5t28.5 -69.5t-28.5 -69.5t-69.5 -28.5t-70 28.5t-29 69.5t29 69.5t70 28.5v1zM517 1041q41 -1 69.5 -29.5t28.5 -69.5t-28.5 -69.5t-69.5 -28.5t-70 28.5t-29 69.5t29 69.5t70 28.5v1z" />
    <glyph glyph-name="aacute" unicode="&#xe1;" horiz-adv-x="682" 
d="M621 513v-513h-182v57h-2q-22 -36 -60 -53.5t-79 -19.5q-4 -1 -8 -1h-8q-114 0 -186.5 81.5t-72.5 191.5t71.5 191.5t185.5 81.5h10t10 -1q39 -3 76.5 -19.5t62.5 -46.5v51h182v0zM328 372q-55 -1 -86 -35.5t-31 -81.5q0 -49 31 -82t86 -33q56 0 86.5 33t30.5 82
q0 47 -30.5 81.5t-86.5 34.5v1zM467 740l-171 -151l-81 59l141 172l111 -80v0z" />
    <glyph glyph-name="agrave" unicode="&#xe0;" horiz-adv-x="682" 
d="M621 513v-513h-182v57h-2q-22 -36 -60 -53.5t-79 -19.5q-4 -1 -8 -1h-8q-114 0 -186.5 81.5t-72.5 191.5t71.5 191.5t185.5 81.5h10t10 -1q39 -3 76.5 -19.5t62.5 -46.5v51h182v0zM328 372q-55 -1 -86 -35.5t-31 -81.5q0 -49 31 -82t86 -33q56 0 86.5 33t30.5 82
q0 47 -30.5 81.5t-86.5 34.5v1zM215 740l111 80l141 -172l-81 -59l-171 151v0z" />
    <glyph glyph-name="acircumflex" unicode="&#xe2;" horiz-adv-x="682" 
d="M621 513v-513h-182v57h-2q-22 -36 -60 -53.5t-79 -19.5q-4 -1 -8 -1h-8q-114 0 -186.5 81.5t-72.5 191.5t71.5 191.5t185.5 81.5h10t10 -1q39 -3 76.5 -19.5t62.5 -46.5v51h182v0zM328 372q-55 -1 -86 -35.5t-31 -81.5q0 -49 31 -82t86 -33q56 0 86.5 33t30.5 82
q0 47 -30.5 81.5t-86.5 34.5v1zM121 665l218 164l221 -164l-77 -84l-144 111l-144 -111l-74 84v0z" />
    <glyph glyph-name="adieresis" unicode="&#xe4;" horiz-adv-x="682" 
d="M621 513v-513h-182v57h-2q-22 -36 -60 -53.5t-79 -19.5q-4 -1 -8 -1h-8q-114 0 -186.5 81.5t-72.5 191.5t71.5 191.5t185.5 81.5h10t10 -1q39 -3 76.5 -19.5t62.5 -46.5v51h182v0zM328 372q-55 -1 -86 -35.5t-31 -81.5q0 -49 31 -82t86 -33q56 0 86.5 33t30.5 82
q0 47 -30.5 81.5t-86.5 34.5v1zM213 800q41 -1 69.5 -29.5t28.5 -69.5t-28.5 -69.5t-69.5 -28.5t-70 28.5t-29 69.5t29 69.5t70 28.5v1zM469 800q41 -1 69.5 -29.5t28.5 -69.5t-28.5 -69.5t-69.5 -28.5t-70 28.5t-29 69.5t29 69.5t70 28.5v1z" />
    <glyph glyph-name="atilde" unicode="&#xe3;" horiz-adv-x="682" 
d="M621 513v-513h-182v57h-2q-22 -36 -60 -53.5t-79 -19.5q-4 -1 -8 -1h-8q-114 0 -186.5 81.5t-72.5 191.5t71.5 191.5t185.5 81.5h10t10 -1q39 -3 76.5 -19.5t62.5 -46.5v51h182v0zM328 372q-55 -1 -86 -35.5t-31 -81.5q0 -49 31 -82t86 -33q56 0 86.5 33t30.5 82
q0 47 -30.5 81.5t-86.5 34.5v1zM225 616h-82l-1 11q0 23 5 45.5t17 42.5q14 23 37.5 39.5t51.5 16.5q15 0 32.5 -3.5t34.5 -8.5q5 -1 9.5 -2.5t9.5 -2.5q22 -6 42 -11.5t35 -5.5q18 0 25.5 9t13.5 24q0 1 0.5 1.5t0.5 1.5l85 1q-1 -9 -2 -16.5t-2 -15.5q-10 -47 -40.5 -87
t-85.5 -40q-11 0 -23 2t-23 6q-8 2 -16 5t-15 6q-20 6 -38.5 12t-36.5 6q-16 0 -22 -9.5t-10 -22.5q-1 -1 -1.5 -2.5t-0.5 -2.5v1z" />
    <glyph glyph-name="aring" unicode="&#xe5;" horiz-adv-x="682" 
d="M621 513v-513h-182v57h-2q-22 -36 -60 -53.5t-79 -19.5q-4 -1 -8 -1h-8q-114 0 -186.5 81.5t-72.5 191.5t71.5 191.5t185.5 81.5h10t10 -1q39 -3 76.5 -19.5t62.5 -46.5v51h182v0zM328 372q-55 -1 -86 -35.5t-31 -81.5q0 -49 31 -82t86 -33q56 0 86.5 33t30.5 82
q0 47 -30.5 81.5t-86.5 34.5v1zM340 815q3 -1 6.5 -1h6.5q53 -3 97.5 -28.5t44.5 -86.5t-44 -87t-97 -28h-5.5h-5.5h-8.5t-9.5 1q-51 3 -94 28t-43 85q0 63 45.5 89t100.5 27h3.5h2.5v1zM342 743q-2 -1 -4 -1h-3q-20 -2 -36 -11.5t-16 -31.5t16 -31.5t36 -11.5h3h4h4.5h4.5
q19 2 34 12t15 31t-15 31t-34 12h-4.5h-4.5v1z" />
    <glyph glyph-name="ccedilla" unicode="&#xe7;" horiz-adv-x="483" 
d="M356 -94l-151 -143l-78 49l130 158l99 -64v0zM430 500v-154q-20 14 -44 24.5t-50 10.5q-52 0 -88.5 -36t-36.5 -89q0 -55 36 -90.5t92 -35.5q5 0 10.5 0.5t10.5 1.5q19 3 37.5 11.5t32.5 21.5v-153q-30 -15 -62.5 -22t-65.5 -7q-114 0 -196.5 75.5t-82.5 191.5
q0 124 83 201.5t204 77.5q32 0 62.5 -7.5t57.5 -22.5v1z" />
    <glyph glyph-name="eacute" unicode="&#xe9;" horiz-adv-x="610" 
d="M587 245v-19h-383q0 -56 29 -85.5t85 -29.5q29 0 50.5 11t36.5 36l175 1q-22 -92 -97.5 -134t-163.5 -42q-127 0 -212 69.5t-85 202.5q0 128 79.5 201t204.5 73q134 0 207.5 -77t73.5 -208v1zM207 331h211q-7 36 -36.5 58t-66.5 22q-40 0 -70 -20.5t-38 -60.5v1zM431 740
l-171 -151l-81 59l141 172l111 -80v0z" />
    <glyph glyph-name="egrave" unicode="&#xe8;" horiz-adv-x="610" 
d="M587 245v-19h-383q0 -56 29 -85.5t85 -29.5q29 0 50.5 11t36.5 36l175 1q-22 -92 -97.5 -134t-163.5 -42q-127 0 -212 69.5t-85 202.5q0 128 79.5 201t204.5 73q134 0 207.5 -77t73.5 -208v1zM207 331h211q-7 36 -36.5 58t-66.5 22q-40 0 -70 -20.5t-38 -60.5v1zM179 740
l111 80l141 -172l-81 -59l-171 151v0z" />
    <glyph glyph-name="ecircumflex" unicode="&#xea;" horiz-adv-x="610" 
d="M587 245v-19h-383q0 -56 29 -85.5t85 -29.5q29 0 50.5 11t36.5 36l175 1q-22 -92 -97.5 -134t-163.5 -42q-127 0 -212 69.5t-85 202.5q0 128 79.5 201t204.5 73q134 0 207.5 -77t73.5 -208v1zM207 331h211q-7 36 -36.5 58t-66.5 22q-40 0 -70 -20.5t-38 -60.5v1zM85 665
l218 164l221 -164l-77 -84l-144 111l-144 -111l-74 84v0z" />
    <glyph glyph-name="edieresis" unicode="&#xeb;" horiz-adv-x="610" 
d="M587 245v-19h-383q0 -56 29 -85.5t85 -29.5q29 0 50.5 11t36.5 36l175 1q-22 -92 -97.5 -134t-163.5 -42q-127 0 -212 69.5t-85 202.5q0 128 79.5 201t204.5 73q134 0 207.5 -77t73.5 -208v1zM207 331h211q-7 36 -36.5 58t-66.5 22q-40 0 -70 -20.5t-38 -60.5v1zM177 800
q41 -1 69.5 -29.5t28.5 -69.5t-28.5 -69.5t-69.5 -28.5t-70 28.5t-29 69.5t29 69.5t70 28.5v1zM433 800q41 -1 69.5 -29.5t28.5 -69.5t-28.5 -69.5t-69.5 -28.5t-70 28.5t-29 69.5t29 69.5t70 28.5v1z" />
    <glyph glyph-name="iacute" unicode="&#xed;" horiz-adv-x="302" 
d="M242 513v-513h-182v513h182v0zM277 740l-171 -151l-81 59l141 172l111 -80v0z" />
    <glyph glyph-name="igrave" unicode="&#xec;" horiz-adv-x="302" 
d="M242 513v-513h-182v513h182v0zM25 740l111 80l141 -172l-81 -59l-171 151v0z" />
    <glyph glyph-name="icircumflex" unicode="&#xee;" horiz-adv-x="302" 
d="M242 513v-513h-182v513h182v0zM-69 665l218 164l221 -164l-77 -84l-144 111l-144 -111l-74 84v0z" />
    <glyph glyph-name="idieresis" unicode="&#xef;" horiz-adv-x="302" 
d="M242 513v-513h-182v513h182v0zM23 800q41 -1 69.5 -29.5t28.5 -69.5t-28.5 -69.5t-69.5 -28.5q-40 0 -69 28.5t-29 69.5t29 69.5t69 28.5v1zM279 800q41 -1 69.5 -29.5t28.5 -69.5t-28.5 -69.5t-69.5 -28.5t-70 28.5t-29 69.5t29 69.5t70 28.5v1z" />
    <glyph glyph-name="ntilde" unicode="&#xf1;" horiz-adv-x="661" 
d="M242 513v-66h2q32 46 71.5 64t92.5 18q104 0 148.5 -59t44.5 -154v-316h-182v250v5v6v19t-1 20q-2 31 -18 57.5t-63 26.5q-55 0 -75 -35.5t-20 -83.5v-265h-182v513h182v0zM214 616h-82l-1 11q0 23 5 45.5t17 42.5q14 23 37.5 39.5t51.5 16.5q15 0 32.5 -3.5t34.5 -8.5
q5 -1 9.5 -2.5t9.5 -2.5q22 -6 42 -11.5t35 -5.5q18 0 25.5 9t13.5 24q0 1 0.5 1.5t0.5 1.5l85 1q-1 -9 -2 -16.5t-2 -15.5q-10 -47 -40.5 -87t-85.5 -40q-11 0 -23 2t-23 6q-8 2 -16 5t-15 6q-20 6 -38.5 12t-36.5 6q-16 0 -22 -9.5t-10 -22.5q-1 -1 -1.5 -2.5t-0.5 -2.5v1
z" />
    <glyph glyph-name="oacute" unicode="&#xf3;" horiz-adv-x="662" 
d="M331 530q124 -1 216.5 -72.5t92.5 -202.5q0 -130 -92.5 -201t-216.5 -71q-123 0 -216 70.5t-93 201.5t92.5 202.5t216.5 71.5v1zM331 372q-55 -1 -86 -35.5t-31 -81.5q0 -49 31 -82t86 -33q56 0 86.5 33t30.5 82q0 47 -30.5 81.5t-86.5 34.5v1zM457 740l-171 -151l-81 59
l141 172l111 -80v0z" />
    <glyph glyph-name="ograve" unicode="&#xf2;" horiz-adv-x="662" 
d="M331 530q124 -1 216.5 -72.5t92.5 -202.5q0 -130 -92.5 -201t-216.5 -71q-123 0 -216 70.5t-93 201.5t92.5 202.5t216.5 71.5v1zM331 372q-55 -1 -86 -35.5t-31 -81.5q0 -49 31 -82t86 -33q56 0 86.5 33t30.5 82q0 47 -30.5 81.5t-86.5 34.5v1zM205 740l111 80l141 -172
l-81 -59l-171 151v0z" />
    <glyph glyph-name="ocircumflex" unicode="&#xf4;" horiz-adv-x="662" 
d="M331 530q124 -1 216.5 -72.5t92.5 -202.5q0 -130 -92.5 -201t-216.5 -71q-123 0 -216 70.5t-93 201.5t92.5 202.5t216.5 71.5v1zM331 372q-55 -1 -86 -35.5t-31 -81.5q0 -49 31 -82t86 -33q56 0 86.5 33t30.5 82q0 47 -30.5 81.5t-86.5 34.5v1zM111 665l218 164l221 -164
l-77 -84l-144 111l-144 -111l-74 84v0z" />
    <glyph glyph-name="odieresis" unicode="&#xf6;" horiz-adv-x="662" 
d="M331 530q124 -1 216.5 -72.5t92.5 -202.5q0 -130 -92.5 -201t-216.5 -71q-123 0 -216 70.5t-93 201.5t92.5 202.5t216.5 71.5v1zM331 372q-55 -1 -86 -35.5t-31 -81.5q0 -49 31 -82t86 -33q56 0 86.5 33t30.5 82q0 47 -30.5 81.5t-86.5 34.5v1zM203 800q41 -1 69.5 -29.5
t28.5 -69.5t-28.5 -69.5t-69.5 -28.5t-70 28.5t-29 69.5t29 69.5t70 28.5v1zM459 800q41 -1 69.5 -29.5t28.5 -69.5t-28.5 -69.5t-69.5 -28.5t-70 28.5t-29 69.5t29 69.5t70 28.5v1z" />
    <glyph glyph-name="otilde" unicode="&#xf5;" horiz-adv-x="662" 
d="M331 530q124 -1 216.5 -72.5t92.5 -202.5q0 -130 -92.5 -201t-216.5 -71q-123 0 -216 70.5t-93 201.5t92.5 202.5t216.5 71.5v1zM331 372q-55 -1 -86 -35.5t-31 -81.5q0 -49 31 -82t86 -33q56 0 86.5 33t30.5 82q0 47 -30.5 81.5t-86.5 34.5v1zM215 616h-82l-1 11
q0 23 5 45.5t17 42.5q14 23 37.5 39.5t51.5 16.5q15 0 32.5 -3.5t34.5 -8.5q5 -1 9.5 -2.5t9.5 -2.5q22 -6 42 -11.5t35 -5.5q18 0 25.5 9t13.5 24q0 1 0.5 1.5t0.5 1.5l85 1q-1 -9 -2 -16.5t-2 -15.5q-10 -47 -40.5 -87t-85.5 -40q-11 0 -23 2t-23 6q-8 2 -16 5t-15 6
q-20 6 -38.5 12t-36.5 6q-16 0 -22 -9.5t-10 -22.5q-1 -1 -1.5 -2.5t-0.5 -2.5v1z" />
    <glyph glyph-name="uacute" unicode="&#xfa;" horiz-adv-x="659" 
d="M57 513h182v-274q0 -50 17.5 -81t73.5 -31t73.5 31t17.5 80v275h182v-309q0 -128 -78.5 -174.5t-194.5 -46.5q-115 0 -194 46.5t-79 173.5v310v0zM456 740l-171 -151l-81 59l141 172l111 -80v0z" />
    <glyph glyph-name="ugrave" unicode="&#xf9;" horiz-adv-x="659" 
d="M57 513h182v-274q0 -50 17.5 -81t73.5 -31t73.5 31t17.5 80v275h182v-309q0 -128 -78.5 -174.5t-194.5 -46.5q-115 0 -194 46.5t-79 173.5v310v0zM204 740l111 80l141 -172l-81 -59l-171 151v0z" />
    <glyph glyph-name="ucircumflex" unicode="&#xfb;" horiz-adv-x="659" 
d="M57 513h182v-274q0 -50 17.5 -81t73.5 -31t73.5 31t17.5 80v275h182v-309q0 -128 -78.5 -174.5t-194.5 -46.5q-115 0 -194 46.5t-79 173.5v310v0zM110 665l218 164l221 -164l-77 -84l-144 111l-144 -111l-74 84v0z" />
    <glyph glyph-name="udieresis" unicode="&#xfc;" horiz-adv-x="659" 
d="M57 513h182v-274q0 -50 17.5 -81t73.5 -31t73.5 31t17.5 80v275h182v-309q0 -128 -78.5 -174.5t-194.5 -46.5q-115 0 -194 46.5t-79 173.5v310v0zM202 800q41 -1 69.5 -29.5t28.5 -69.5t-28.5 -69.5t-69.5 -28.5t-70 28.5t-29 69.5t29 69.5t70 28.5v1zM458 800
q41 -1 69.5 -29.5t28.5 -69.5t-28.5 -69.5t-69.5 -28.5t-70 28.5t-29 69.5t29 69.5t70 28.5v1z" />
    <glyph glyph-name="dagger" unicode="&#x2020;" horiz-adv-x="686" 
d="M260 754h166v-205h177v-144h-177v-585h-166v585h-176v144h176v205v0z" />
    <glyph glyph-name="degree" horiz-adv-x="400" 
d="M350 623q0 -62 -44.5 -106t-106.5 -44q-63 0 -106 44t-43 105v0.5v1.5v1.5v0.5q0 61 43.5 104t105.5 43t106.5 -44.5t44.5 -106.5v1zM265 624q0 25 -19 44.5t-47 19.5q-25 0 -44.5 -18.5t-19.5 -44.5v-0.5v-0.5v-0.5v-0.5q0 -27 19 -46t46 -19t46 19t19 46v1z" />
    <glyph glyph-name="cent" unicode="&#xa2;" horiz-adv-x="686" 
d="M394 10v99q-105 4 -179 83t-74 184q0 113 71 188t182 85v94h93v-99l58 -17v-163q-18 16 -40 26.5t-48 10.5q-53 0 -89.5 -34t-36.5 -88q0 -51 34 -87t86 -36h4h4q24 1 47 10t39 28v-162q-14 -6 -28.5 -10.5t-29.5 -6.5v-105h-93v0z" />
    <glyph glyph-name="sterling" unicode="&#xa3;" horiz-adv-x="686" 
d="M478 300h-142q5 -14 7 -31.5t2 -37.5v-4v-4q-1 -16 -3 -31.5t-6 -26.5l11 -3q7 -3 14.5 -6t16.5 -5q11 -4 22.5 -7t22.5 -6q20 -5 38.5 -8t33.5 -3q23 0 37 13t14 36l122 1q-6 -83 -50.5 -138t-133.5 -55q-21 0 -41 3.5t-40 8.5q-10 3 -20 5t-21 5q-4 2 -8 3l-8 2l-14 4
t-16 4q-8 2 -17 4.5t-18 4.5q-17 3 -33 5.5t-29 2.5q-4 0 -8 -0.5t-7 -0.5q-16 -3 -30 -11.5t-18 -23.5h-130q1 3 2 7l2 8q15 60 58.5 110t109.5 51q3 5 4.5 10.5t3.5 11.5q1 5 1.5 10.5t0.5 10.5q-1 21 -8.5 41t-19.5 39l-161 1v76h108q-17 27 -26.5 60t-9.5 67
q0 54 21 104t60 87q44 42 98.5 57.5t112.5 15.5q149 0 213 -68.5t65 -215.5l-194 1v35q0 37 -26.5 65.5t-64.5 28.5q-46 0 -70.5 -31.5t-24.5 -74.5q0 -37 11 -70t30 -62l156 1v-76v0z" />
    <glyph glyph-name="section" unicode="&#xa7;" horiz-adv-x="686" 
d="M563 589h-157q-6 25 -24.5 42t-46.5 17q-22 0 -39 -13.5t-17 -37.5q0 -29 20 -45.5t44 -28.5l15 -7.5t14 -6.5l111 -55q4 -3 7 -4.5l7 -3.5q57 -29 95 -65t38 -110q0 -48 -23.5 -88t-60.5 -69q20 -18 32 -43.5t16 -52.5q2 -9 2.5 -17t0.5 -16q0 -109 -81.5 -162
t-179.5 -53h-8h-8q-99 5 -180.5 60t-80.5 163v2.5v2.5v2v2l183 1v-2.5v-0.5q0 -37 29 -61.5t63 -26.5h3.5h2.5q31 0 53.5 17.5t22.5 49.5q0 26 -18.5 42t-40.5 27q-7 3 -13 6l-12 6l-158 78q-52 25 -84.5 64t-32.5 100q0 49 25 91t61 72q-14 14 -24.5 34t-15.5 42
q-2 10 -3.5 20.5t-1.5 20.5q0 95 71 143t157 48q89 0 161 -42.5t76 -142.5v1zM285 270l167 -83q8 6 14.5 16t9.5 21q1 4 1.5 8t0.5 8q0 24 -16.5 39t-36.5 26q-5 3 -10 5.5t-10 4.5l-164 84q-14 -9 -22.5 -23.5t-8.5 -31.5q0 -25 17 -40t38 -25q5 -3 10 -5.5t10 -4.5v1z" />
    <glyph glyph-name="bullet" horiz-adv-x="686" 
d="M344 566q81 -1 134.5 -56.5t53.5 -133.5q0 -77 -53.5 -132.5t-134.5 -55.5t-135 55.5t-54 132.5q0 78 54 133.5t135 55.5v1z" />
    <glyph glyph-name="paragraph" unicode="&#xb6;" horiz-adv-x="686" 
d="M262 754h377v-91h-66v-833h-101v832h-93v-832h-101v460q-87 7 -152.5 52.5t-78.5 161.5q0 3 -0.5 5.5t-0.5 4.5v4.5v5.5q0 86 66 157.5t150 71.5v1z" />
    <glyph glyph-name="germandbls" unicode="&#xdf;" horiz-adv-x="651" 
d="M60 442v147v3.5v4.5q1 49 12 95.5t50 80.5q31 29 72 44t84 20q10 1 21 1.5t21 0.5q102 0 175.5 -55.5t73.5 -165.5q0 -54 -23.5 -89.5t-65.5 -67.5q74 -29 111.5 -76.5t37.5 -136.5q0 -14 -1.5 -29t-4.5 -30q-7 -40 -25.5 -78t-48.5 -63q-30 -26 -68.5 -40t-78.5 -20
q-17 -3 -34.5 -4t-33.5 -1h-39v155q1 -1 2 -1h2h2h2q54 0 90.5 32.5t36.5 88.5q0 55 -37 89t-89 33h-4.5h-4.5v146q1 -1 2 -1h2h1h2q40 0 66 19t26 62q0 35 -20.5 55.5t-55.5 20.5q-53 0 -64.5 -34t-11.5 -74v-3.5v-2.5v-568h-182v297h-52v145h52v0z" />
    <glyph glyph-name="registered" unicode="&#xae;" horiz-adv-x="800" 
d="M400 -20q-166 0 -281 115.5t-115 279.5q0 166 115 282t281 116q165 0 280.5 -116t115.5 -282q0 -164 -115.5 -279.5t-280.5 -115.5v0zM400 74q128 -1 215 84t87 217q0 134 -87 219t-215 85q-130 0 -216 -85t-86 -219q0 -132 86 -217t216 -85v1zM490 349l100 -174h-100
l-92 174h-64v-174h-92v412h200q71 -1 115.5 -23t44.5 -104q0 -57 -28.5 -82.5t-83.5 -29.5v1zM334 411h110q35 -1 53.5 10.5t18.5 50.5q0 25 -21.5 33t-46.5 9h-13h-12l-89 1v-104v0z" />
    <glyph glyph-name="copyright" unicode="&#xa9;" horiz-adv-x="800" 
d="M400 -20q-166 0 -281 115.5t-115 279.5q0 166 115 282t281 116q165 0 280.5 -116t115.5 -282q0 -164 -115.5 -279.5t-280.5 -115.5v0zM400 74q128 -1 215 84t87 217q0 134 -87 219t-215 85q-130 0 -216 -85t-86 -219q0 -132 86 -217t216 -85v1zM602 459h-90
q-6 36 -33.5 54t-64.5 18q-59 0 -91 -45.5t-32 -104.5v-4v-4q3 -55 36.5 -100t89.5 -45q35 0 64 20.5t31 56.5l90 1q-8 -73 -62 -114t-123 -41q-100 0 -160 66.5t-60 161.5q0 99 58 164t160 65q71 0 123 -39.5t64 -110.5v1z" />
    <glyph glyph-name="trademark" unicode="&#x2122;" horiz-adv-x="940" 
d="M384 754v-78h-123v-326h-97v326h-123v78h343v0zM899 754v-404h-88v326h-2l-117 -326h-52l-117 326h-2v-326h-88v404h142l91 -239l91 239h142v0z" />
    <glyph glyph-name="acute" unicode="&#xb4;" horiz-adv-x="402" 
d="M327 740l-171 -151l-81 59l141 172l111 -80v0z" />
    <glyph glyph-name="dieresis" unicode="&#xa8;" horiz-adv-x="604" 
d="M174 800q41 -1 69.5 -29.5t28.5 -69.5t-28.5 -69.5t-69.5 -28.5t-70 28.5t-29 69.5t29 69.5t70 28.5v1zM430 800q41 -1 69.5 -29.5t28.5 -69.5t-28.5 -69.5t-69.5 -28.5t-70 28.5t-29 69.5t29 69.5t70 28.5v1z" />
    <glyph glyph-name="AE" unicode="&#x2260;" 
 />
    <glyph glyph-name="Oslash" unicode="&#xc6;" horiz-adv-x="1026" 
d="M572 0l-49 131h-273l-47 -131h-207l291 754h462l61 -166h-248l46 -126h247l63 -166h-249l49 -130h248l60 -166h-454v0zM470 281l-81 224l-85 -224h166v0z" />
    <glyph glyph-name="plusminus" unicode="&#xd8;" horiz-adv-x="887" 
d="M874 711l-92 -90q7 -10 12.5 -19t11.5 -18q27 -45 40.5 -92t13.5 -103q0 -185 -120.5 -299.5t-295.5 -114.5h-7.5h-7.5q-65 2 -128.5 22.5t-116.5 58.5l-95 -89l-78 82l93 89q-37 54 -57.5 113t-20.5 138q0 164 119 276.5t294 112.5q22 0 45.5 -1.5t47.5 -5.5
q47 -8 91.5 -25t77.5 -47l96 94l77 -82v0zM630 481l-298 -286q10 -6 20 -10.5t19 -7.5q17 -7 34.5 -10t38.5 -3q88 0 150 64t62 161q0 26 -6 49t-20 42v1zM256 282l292 279q-14 8 -30.5 14t-34.5 10l-20 2t-19 1q-86 0 -150 -60t-64 -139q0 -32 6.5 -59.5t19.5 -48.5v1z" />
    <glyph glyph-name="yen" unicode="&#x221e;" 
 />
    <glyph glyph-name="mu" unicode="&#xb1;" horiz-adv-x="686" 
d="M87 150h512v-150h-512v150v0zM268 512v142h150v-142h181v-150h-181v-142h-150v142h-181v150h181v0z" />
    <glyph glyph-name="ordfeminine" unicode="&#x2264;" 
 />
    <glyph glyph-name="ordmasculine" unicode="&#x2265;" 
 />
    <glyph glyph-name="ae" unicode="&#xa5;" horiz-adv-x="686" 
d="M633 446h-142l-56 -84h198v-76h-198v-286h-184v286h-200v76h199l-57 84h-142v76h92l-154 232h222l132 -205l132 205h222l-155 -232h91v-76v0z" />
    <glyph glyph-name="oslash" unicode="&#xb5;" horiz-adv-x="659" 
d="M57 513h182v-274q0 -50 17.5 -81t73.5 -31t73.5 31t17.5 80v275h182v-309q0 -100 -49.5 -148.5t-109.5 -62.5q-19 -5 -38 -7.5t-36 -2.5q-40 0 -70 11.5t-49 25.5q-3 3 -6 5.5t-6 5.5v-287h-182v769v0z" />
    <glyph glyph-name="questiondown" unicode="&#x2202;" 
 />
    <glyph glyph-name="exclamdown" unicode="&#x3a3;" 
 />
    <glyph glyph-name="florin" unicode="&#x220f;" 
 />
    <glyph glyph-name="guillemotleft" unicode="&#x3c0;" 
 />
    <glyph glyph-name="guillemotright" unicode="&#x222b;" 
 />
    <glyph glyph-name="ellipsis" unicode="&#xaa;" horiz-adv-x="409" 
d="M399 315h-388v75h388v-75v0zM281 456v34h-2q-14 -22 -38.5 -32.5t-51.5 -12.5h-4.5h-5.5q-74 0 -121 49t-47 115q0 67 46.5 115.5t120.5 48.5h6.5t6.5 -1q26 -2 49.5 -11.5t40.5 -27.5v31h118v-308h-118v0zM209 540q32 -1 54 19.5t22 49.5t-22 49.5t-54 20.5
q-31 0 -53.5 -20.5t-22.5 -49.5t22.5 -49.5t53.5 -20.5v1z" />
    <glyph glyph-name="Agrave" unicode="&#xba;" horiz-adv-x="410" 
d="M406 315h-401v75h401v-75v0zM205 774q80 -1 140.5 -43.5t60.5 -121.5t-60.5 -121.5t-140.5 -42.5t-140 42.5t-60 121.5t60 121.5t140 42.5v1zM205 679q-31 -1 -53 -21t-22 -49t22 -49t53 -20q32 0 54 20t22 49t-22 49t-54 20v1z" />
    <glyph glyph-name="Atilde" unicode="&#x3a9;" 
 />
    <glyph glyph-name="Otilde" unicode="&#xe6;" horiz-adv-x="940" 
d="M918 226h-383q0 -56 29 -85.5t85 -29.5q29 0 50.5 11t36.5 36l175 1q-22 -92 -97.5 -134t-163.5 -42q-11 0 -23 0.5t-23 2.5q-50 6 -94.5 28t-65.5 69q-37 -47 -92.5 -73.5t-115.5 -26.5q-10 0 -20.5 1t-21.5 2q-65 10 -119 49t-54 112q0 92 65 131.5t146 39.5
q22 0 42 -2t40 -7q13 -3 26 -7t27 -10v16q0 52 -38 70.5t-84 18.5q-29 0 -55.5 -5t-52.5 -12q-9 -3 -17.5 -5.5t-17.5 -5.5v137q27 6 55 12t56 9q10 1 19.5 1.5t18.5 0.5q10 0 20.5 -0.5t21.5 -1.5q45 -6 87 -26t64 -63q26 39 68 60.5t88 27.5q9 2 18.5 2.5t18.5 0.5
q134 0 207.5 -77t73.5 -208v-18v0zM274 218q-5 -1 -9.5 -1.5t-9.5 -1.5q-22 -3 -39.5 -16t-17.5 -37t18 -36.5t40 -16.5q6 -1 12 -1.5t12 -0.5q8 0 17.5 1t19.5 4q20 5 37 17t17 32q0 23 -18.5 35t-40.5 17q-10 2 -20 3t-18 1v1zM541 331h211q-7 36 -36.5 58t-66.5 22
q-40 0 -70 -20.5t-38 -60.5v1z" />
    <glyph glyph-name="OE" unicode="&#xf8;" horiz-adv-x="662" 
d="M128 43l-96 -78l-49 62l89 70q-15 20 -26 46t-17 53q-3 15 -5 29.5t-2 28.5q0 133 92 204t216 71q9 0 18 -0.5t18 -0.5q46 -4 89.5 -18t78.5 -43l101 83l49 -62l-95 -75q5 -7 9 -13t7 -12q18 -27 26.5 -55.5t8.5 -63.5q0 -140 -87.5 -213t-223.5 -73q-16 0 -32 1t-32 4
q-38 6 -73.5 19t-63.5 35v1zM440 299l-172 -139q14 -11 29 -15.5t31 -4.5q49 0 83.5 33t34.5 82q0 11 -1.5 22t-4.5 21v1zM222 210l174 144q-4 2 -8 4.5t-8 4.5q-10 5 -21 6.5t-25 1.5q-50 0 -85 -32.5t-35 -82.5q0 -12 2 -24t6 -23v1z" />
    <glyph glyph-name="oe" unicode="&#xbf;" horiz-adv-x="595" 
d="M409 258v-194q-10 1 -20.5 2.5t-21.5 1.5q-7 0 -15 -0.5t-15 -2.5q-37 -7 -68 -31t-31 -64q0 -31 21 -53t52 -22q35 0 52.5 22t17.5 54h199q-1 -114 -84.5 -174.5t-189.5 -60.5q-47 0 -92.5 15t-82.5 47q-37 31 -61.5 77t-24.5 96q0 84 52.5 137.5t128.5 77.5v72h183v0z
M314 532q49 -1 83 -35t34 -83q0 -48 -34 -82.5t-83 -34.5t-83 34.5t-34 82.5q0 49 34 83t83 34v1z" />
    <glyph glyph-name="endash" unicode="&#xa1;" horiz-adv-x="384" 
d="M98 255h189v-498h-189v498v0zM192 532q49 -1 83 -35t34 -83q0 -48 -34 -82.5t-83 -34.5t-83 34.5t-34 82.5q0 49 34 83t83 34v1z" />
    <glyph glyph-name="emdash" unicode="&#xac;" 
 />
    <glyph glyph-name="quotedblleft" unicode="&#x221a;" 
 />
    <glyph glyph-name="quotedblright" unicode="&#x192;" horiz-adv-x="686" 
d="M471 505h110l-13 -76h-110l-51 -279q-11 -65 -27.5 -124t-57.5 -111q-40 -51 -87 -74t-106 -23h-14t-15 1l-106 9l30 165q3 -1 6 -1.5t6 -0.5q14 -3 29 -5t30 -2q40 0 63.5 15t39.5 52q7 17 12 37.5t10 41.5q3 17 6 33.5t6 31.5l42 234h-86l12 76h88l20 108q8 42 20 78
t42 69q32 36 73 52.5t89 16.5h12t13 -1q28 -2 55 -9.5t50 -23.5l-29 -156q-13 8 -28.5 16t-31.5 11q-4 1 -8.5 1.5t-9.5 0.5q-33 0 -47 -23t-20 -51l-4 -18t-3 -17l-10 -54v0z" />
    <glyph glyph-name="quoteleft" unicode="&#x2248;" 
 />
    <glyph glyph-name="quoteright" unicode="&#x2206;" 
 />
    <glyph glyph-name="ydieresis" unicode="&#xab;" horiz-adv-x="603" 
d="M172 320l129 -174l-103 -72l-172 246l172 246l100 -69l-126 -177v0zM421 320l129 -174l-103 -72l-172 246l172 246l100 -69l-126 -177v0z" />
    <glyph glyph-name="Ydieresis" unicode="&#xbb;" horiz-adv-x="603" 
d="M53 146l129 174l-126 177l100 69l172 -246l-172 -246l-103 72v0zM302 146l129 174l-126 177l100 69l172 -246l-172 -246l-103 72v0z" />
    <glyph glyph-name="fraction" unicode="&#x2026;" horiz-adv-x="1000" 
d="M167 214q49 -1 83 -35t34 -83q0 -48 -34 -82t-83 -34t-83 34t-34 82q0 49 34 83t83 34v1zM500 214q49 -1 83 -35t34 -83q0 -48 -34 -82t-83 -34t-83 34t-34 82q0 49 34 83t83 34v1zM833 214q49 -1 83 -35t34 -83q0 -48 -34 -82t-83 -34t-83 34t-34 82q0 49 34 83t83 34v1
z" />
    <glyph glyph-name="currency" unicode="&#xc0;" horiz-adv-x="781" 
d="M526 131h-270l-52 -131h-208l290 754h214l284 -754h-209l-49 131v0zM473 281l-80 240h-2l-81 -240h163v0zM265 981l111 80l141 -172l-81 -59l-171 151v0z" />
    <glyph glyph-name="guilsinglleft" unicode="&#xc3;" horiz-adv-x="781" 
d="M526 131h-270l-52 -131h-208l290 754h214l284 -754h-209l-49 131v0zM473 281l-80 240h-2l-81 -240h163v0zM274 857h-82l-1 11q0 23 5 45.5t17 42.5q14 23 37.5 39.5t51.5 16.5q15 0 32.5 -3.5t34.5 -8.5q5 -1 9.5 -2.5t9.5 -2.5q22 -6 42 -11.5t35 -5.5q18 0 25.5 9
t13.5 24q0 1 0.5 1.5t0.5 1.5l85 1q-1 -9 -2 -16.5t-2 -15.5q-10 -47 -40.5 -87t-85.5 -40q-11 0 -23 2t-23 6q-8 2 -16 5t-15 6q-20 6 -38.5 12t-36.5 6q-16 0 -22 -9.5t-10 -22.5q-1 -1 -1.5 -2.5t-0.5 -2.5v1z" />
    <glyph glyph-name="guilsinglright" unicode="&#xd5;" horiz-adv-x="887" 
d="M443 779q163 -1 290 -109.5t127 -279.5q0 -183 -117.5 -299t-299.5 -116q-181 0 -299 116t-118 299q0 171 127 279.5t290 108.5v1zM443 589q-88 -1 -150.5 -61.5t-62.5 -138.5q0 -97 62.5 -161t150.5 -64t150.5 64t62.5 161q0 78 -62.5 138.5t-150.5 60.5v1zM327 857h-82
l-1 11q0 23 5 45.5t17 42.5q14 23 37.5 39.5t51.5 16.5q15 0 32.5 -3.5t34.5 -8.5q5 -1 9.5 -2.5t9.5 -2.5q22 -6 42 -11.5t35 -5.5q18 0 25.5 9t13.5 24q0 1 0.5 1.5t0.5 1.5l85 1q-1 -9 -2 -16.5t-2 -15.5q-10 -47 -40.5 -87t-85.5 -40q-11 0 -23 2t-23 6q-8 2 -16 5
t-15 6q-20 6 -38.5 12t-36.5 6q-16 0 -22 -9.5t-10 -22.5q-1 -1 -1.5 -2.5t-0.5 -2.5v1z" />
    <glyph glyph-name="fi" unicode="&#x152;" horiz-adv-x="1140" 
d="M660 0v83q-51 -56 -109 -82t-131 -26q-162 0 -278 120.5t-116 280.5q0 161 116 281.5t278 120.5q73 0 133 -23.5t107 -70.5v70h424v-166h-229v-126h213v-166h-213v-130h229v-166h-424v0zM441 589q-87 -1 -149 -63t-62 -150q0 -87 62 -149.5t149 -62.5q88 0 149 62.5
t61 149.5q0 88 -61 150t-149 62v1z" />
    <glyph glyph-name="fl" unicode="&#x153;" horiz-adv-x="1022" 
d="M1001 245v-19h-383q0 -56 29 -85.5t85 -29.5q29 0 50.5 11t36.5 36l175 1q-22 -92 -97.5 -134t-163.5 -42q-68 0 -120.5 19.5t-87.5 68.5q-44 -49 -92.5 -68.5t-115.5 -19.5q-126 0 -211 70t-85 202q0 129 85 201.5t209 72.5q64 0 114 -16.5t96 -60.5q27 36 68.5 53
t85.5 22q10 1 20.5 1.5t20.5 0.5q134 0 207.5 -77t73.5 -208v1zM330 372q-48 -1 -82.5 -35.5t-34.5 -81.5q0 -49 34.5 -82t82.5 -33t82.5 33t34.5 82q0 47 -34.5 81.5t-82.5 34.5v1zM618 331h211q-7 36 -36.5 58t-66.5 22q-40 0 -70 -20.5t-38 -60.5v1z" />
    <glyph glyph-name="daggerdbl" horiz-adv-x="500" 
d="M0 396h500v-150h-500v150v0z" />
    <glyph glyph-name="periodcentered" unicode="&#x2014;" horiz-adv-x="1000" 
d="M0 396h1000v-150h-1000v150v0z" />
    <glyph glyph-name="quotedblbase" unicode="&#x201c;" horiz-adv-x="628" 
d="M189 423h-170l184 331h116l-130 -331v0zM445 423h-170l184 331h116l-130 -331v0z" />
    <glyph glyph-name="perthousand" unicode="&#x201d;" horiz-adv-x="628" 
d="M183 754h170l-184 -331h-116l130 331v0zM439 754h170l-184 -331h-116l130 331v0z" />
    <glyph glyph-name="Acircumflex" unicode="&#x2018;" horiz-adv-x="372" 
d="M189 423h-170l184 331h116l-130 -331v0z" />
    <glyph glyph-name="Ecircumflex" unicode="&#x2019;" horiz-adv-x="372" 
d="M183 754h170l-184 -331h-116l130 331v0z" />
    <glyph glyph-name="Aacute" unicode="&#xf7;" 
 />
    <glyph glyph-name="Edieresis" unicode="&#x25ca;" 
 />
    <glyph glyph-name="Egrave" unicode="&#xff;" horiz-adv-x="654" 
d="M233 70l-248 443h210l137 -263l134 263h207l-411 -769h-204l175 326v0zM199 800q41 -1 69.5 -29.5t28.5 -69.5t-28.5 -69.5t-69.5 -28.5t-70 28.5t-29 69.5t29 69.5t70 28.5v1zM455 800q41 -1 69.5 -29.5t28.5 -69.5t-28.5 -69.5t-69.5 -28.5t-70 28.5t-29 69.5t29 69.5
t70 28.5v1z" />
    <glyph glyph-name="Iacute" unicode="&#x178;" horiz-adv-x="714" 
d="M259 362l-278 392h235l141 -205l141 205h235l-278 -392v-362h-196v362v0zM229 1041q41 -1 69.5 -29.5t28.5 -69.5t-28.5 -69.5t-69.5 -28.5t-70 28.5t-29 69.5t29 69.5t70 28.5v1zM485 1041q41 -1 69.5 -29.5t28.5 -69.5t-28.5 -69.5t-69.5 -28.5t-70 28.5t-29 69.5
t29 69.5t70 28.5v1z" />
    <glyph glyph-name="Icircumflex" unicode="&#x2215;" horiz-adv-x="194" 
d="M267 754h98l-438 -754h-98l438 754v0z" />
    <glyph glyph-name="Idieresis" unicode="&#xa4;" horiz-adv-x="686" 
d="M49 152l66 66q-23 30 -36.5 71.5t-13.5 87.5v4v4q1 44 13.5 86t36.5 71l-66 68l62 63l67 -67q29 21 69.5 34.5t82.5 16.5h8h8q46 0 89 -14t71 -38l67 68l62 -62l-62 -63q23 -32 37.5 -74t16.5 -86v-4.5v-4.5q0 -46 -15 -89t-41 -72l66 -65l-60 -65l-67 66
q-30 -26 -73.5 -40.5t-90.5 -14.5q-49 0 -93 14t-76 41l-66 -65l-62 63v0zM346 508q-56 -1 -93.5 -39.5t-37.5 -94.5q0 -57 38 -91t93 -34q56 0 93.5 34t37.5 91q0 56 -37.5 94.5t-93.5 38.5v1z" />
    <glyph glyph-name="Igrave" unicode="&#x2039;" horiz-adv-x="354" 
d="M172 320l129 -174l-103 -72l-172 246l172 246l100 -69l-126 -177v0z" />
    <glyph glyph-name="Oacute" unicode="&#x203a;" horiz-adv-x="354" 
d="M53 146l129 174l-126 177l100 69l172 -246l-172 -246l-103 72v0z" />
    <glyph glyph-name="Ocircumflex" unicode="&#xf001;" horiz-adv-x="679" 
d="M254 363v-363h-182v363h-64v150h64v65q0 41 4 76t23 68q5 9 11 17.5t14 17.5q34 40 80.5 61t98.5 21q21 0 40 -4t38 -14v-156q-4 1 -8.5 3t-9.5 3q-11 5 -22 7.5t-24 2.5q-35 0 -49 -21t-14 -65v-82h127v-150h-127v0zM619 513v-513h-182v513h182v0zM528 812q42 -1 72 -31
t30 -72t-30 -72t-72 -30t-72 30t-30 72t30 72t72 30v1z" />
    <glyph glyph-name="Ograve" unicode="&#xf002;" horiz-adv-x="690" 
d="M254 363v-363h-182v363h-64v150h64v65q0 41 4 76t23 68q5 9 11 17.5t14 17.5q34 40 80.5 61t98.5 21q21 0 40 -4t38 -14v-156q-4 1 -8.5 3t-9.5 3q-11 5 -22 7.5t-24 2.5q-35 0 -49 -21t-14 -65v-82h127v-150h-127v0zM630 830v-830h-182v830h182v0z" />
    <glyph glyph-name="Uacute" unicode="&#x2021;" horiz-adv-x="686" 
d="M261 754h166v-185h176v-144h-176v-142h176v-144h-176v-318h-166v318h-177v144h177v142h-177v144h177v185v0z" />
    <glyph glyph-name="Ucircumflex" unicode="&#x2219;" 
d="M172 373q49 -1 83 -35t34 -83q0 -48 -34 -82.5t-83 -34.5t-83 34.5t-34 82.5q0 49 34 83t83 34v1z" />
    <glyph glyph-name="Ugrave" unicode="&#x201a;" 
 />
    <glyph glyph-name="dotlessi" unicode="&#x201e;" horiz-adv-x="594" 
d="M149 191h170l-184 -331h-116l130 331v0zM405 191h170l-184 -331h-116l130 331v0z" />
    <glyph glyph-name="circumflex" unicode="&#x2030;" horiz-adv-x="1460" 
d="M750 359q84 -1 145 -47.5t61 -136.5q0 -91 -60 -138t-146 -47t-146 47t-60 138q0 90 61 136.5t145 46.5v1zM750 259q-35 -1 -60 -26t-25 -60t25 -59.5t60 -24.5t60 24.5t25 59.5t-25 60t-60 25v1zM1235 359q84 -1 145 -47.5t61 -136.5q0 -91 -60 -138t-146 -47t-146 47
t-60 138q0 90 61 136.5t145 46.5v1zM1235 259q-35 -1 -60 -26t-25 -60t25 -59.5t60 -24.5t60 24.5t25 59.5t-25 60t-60 25v1zM657 754h98l-438 -754h-98l438 754v0zM225 764q84 -1 145 -47.5t61 -136.5q0 -91 -60 -138.5t-146 -47.5t-146 47.5t-60 138.5q0 90 61 136.5
t145 46.5v1zM225 664q-35 -1 -60 -26t-25 -60t25 -59.5t60 -24.5t60 24.5t25 59.5t-25 60t-60 25v1z" />
    <glyph glyph-name="tilde" unicode="&#xc2;" horiz-adv-x="781" 
d="M526 131h-270l-52 -131h-208l290 754h214l284 -754h-209l-49 131v0zM473 281l-80 240h-2l-81 -240h163v0zM171 906l218 164l221 -164l-77 -84l-144 111l-144 -111l-74 84v0z" />
    <glyph glyph-name="macron" unicode="&#xca;" horiz-adv-x="550" 
d="M493 588h-233v-126h221v-166h-221v-130h233v-166h-429v754h429v-166v0zM55 906l218 164l221 -164l-77 -84l-144 111l-144 -111l-74 84v0z" />
    <glyph glyph-name="breve" unicode="&#xc1;" horiz-adv-x="781" 
d="M526 131h-270l-52 -131h-208l290 754h214l284 -754h-209l-49 131v0zM473 281l-80 240h-2l-81 -240h163v0zM517 981l-171 -151l-81 59l141 172l111 -80v0z" />
    <glyph glyph-name="dotaccent" unicode="&#xcb;" horiz-adv-x="550" 
d="M493 588h-233v-126h221v-166h-221v-130h233v-166h-429v754h429v-166v0zM147 1041q41 -1 69.5 -29.5t28.5 -69.5t-28.5 -69.5t-69.5 -28.5t-70 28.5t-29 69.5t29 69.5t70 28.5v1zM403 1041q41 -1 69.5 -29.5t28.5 -69.5t-28.5 -69.5t-69.5 -28.5t-70 28.5t-29 69.5
t29 69.5t70 28.5v1z" />
    <glyph glyph-name="ring" unicode="&#xc8;" horiz-adv-x="550" 
d="M493 588h-233v-126h221v-166h-221v-130h233v-166h-429v754h429v-166v0zM149 981l111 80l141 -172l-81 -59l-171 151v0z" />
    <glyph glyph-name="cedilla" unicode="&#xcd;" horiz-adv-x="324" 
d="M260 754v-754h-196v754h196v0zM288 981l-171 -151l-81 59l141 172l111 -80v0z" />
    <glyph glyph-name="hungarumlaut" unicode="&#xce;" horiz-adv-x="324" 
d="M260 754v-754h-196v754h196v0zM-58 906l218 164l221 -164l-77 -84l-144 111l-144 -111l-74 84v0z" />
    <glyph glyph-name="ogonek" unicode="&#xcf;" horiz-adv-x="324" 
d="M260 754v-754h-196v754h196v0zM34 1041q41 -1 69.5 -29.5t28.5 -69.5t-28.5 -69.5t-69.5 -28.5q-40 0 -69 28.5t-29 69.5t29 69.5t69 28.5v1zM290 1041q41 -1 69.5 -29.5t28.5 -69.5t-28.5 -69.5t-69.5 -28.5t-70 28.5t-29 69.5t29 69.5t70 28.5v1z" />
    <glyph glyph-name="caron" unicode="&#xcc;" horiz-adv-x="324" 
d="M260 754v-754h-196v754h196v0zM36 981l111 80l141 -172l-81 -59l-171 151v0z" />
    <glyph glyph-name="Lslash" unicode="&#xd3;" horiz-adv-x="887" 
d="M443 779q163 -1 290 -109.5t127 -279.5q0 -183 -117.5 -299t-299.5 -116q-181 0 -299 116t-118 299q0 171 127 279.5t290 108.5v1zM443 589q-88 -1 -150.5 -61.5t-62.5 -138.5q0 -97 62.5 -161t150.5 -64t150.5 64t62.5 161q0 78 -62.5 138.5t-150.5 60.5v1zM570 981
l-171 -151l-81 59l141 172l111 -80v0z" />
    <glyph glyph-name="lslash" unicode="&#xd4;" horiz-adv-x="887" 
d="M443 779q163 -1 290 -109.5t127 -279.5q0 -183 -117.5 -299t-299.5 -116q-181 0 -299 116t-118 299q0 171 127 279.5t290 108.5v1zM443 589q-88 -1 -150.5 -61.5t-62.5 -138.5q0 -97 62.5 -161t150.5 -64t150.5 64t62.5 161q0 78 -62.5 138.5t-150.5 60.5v1zM224 906
l218 164l221 -164l-77 -84l-144 111l-144 -111l-74 84v0z" />
    <glyph glyph-name="Scaron" unicode="&#xf000;" 
 />
    <glyph glyph-name="scaron" unicode="&#xd2;" 
 />
    <glyph glyph-name="Eth" unicode="&#xda;" horiz-adv-x="778" 
d="M522 754h196v-424q0 -74 -11.5 -143t-67.5 -124q-36 -36 -85.5 -54.5t-101.5 -24.5q-16 -2 -32 -3t-31 -1t-31 1t-32 3q-52 6 -101.5 24.5t-85.5 54.5q-56 55 -67.5 124t-11.5 142v425h196v-397v-12.5v-11.5q1 -68 23.5 -125t109.5 -57t109.5 57t23.5 125v11.5v11.5v398
v0zM515 981l-171 -151l-81 59l141 172l111 -80v0z" />
    <glyph glyph-name="eth" unicode="&#xdb;" horiz-adv-x="778" 
d="M522 754h196v-424q0 -74 -11.5 -143t-67.5 -124q-36 -36 -85.5 -54.5t-101.5 -24.5q-16 -2 -32 -3t-31 -1t-31 1t-32 3q-52 6 -101.5 24.5t-85.5 54.5q-56 55 -67.5 124t-11.5 142v425h196v-397v-12.5v-11.5q1 -68 23.5 -125t109.5 -57t109.5 57t23.5 125v11.5v11.5v398
v0zM169 906l218 164l221 -164l-77 -84l-144 111l-144 -111l-74 84v0z" />
    <glyph glyph-name="Thorn" unicode="&#xd9;" horiz-adv-x="778" 
d="M522 754h196v-424q0 -74 -11.5 -143t-67.5 -124q-36 -36 -85.5 -54.5t-101.5 -24.5q-16 -2 -32 -3t-31 -1t-31 1t-32 3q-52 6 -101.5 24.5t-85.5 54.5q-56 55 -67.5 124t-11.5 142v425h196v-397v-12.5v-11.5q1 -68 23.5 -125t109.5 -57t109.5 57t23.5 125v11.5v11.5v398
v0zM263 981l111 80l141 -172l-81 -59l-171 151v0z" />
    <glyph glyph-name="thorn" unicode="&#x131;" horiz-adv-x="302" 
d="M242 513v-513h-182v513h182v0z" />
    <glyph glyph-name="onehalf" unicode="&#x2dc;" horiz-adv-x="590" 
d="M75 665l218 164l221 -164l-77 -84l-144 111l-144 -111l-74 84v0z" />
    <glyph glyph-name="arrowright" unicode="&#x2c6;" horiz-adv-x="549" 
d="M158 616h-82l-1 11q0 23 5 45.5t17 42.5q14 23 37.5 39.5t51.5 16.5q15 0 32.5 -3.5t34.5 -8.5q5 -1 9.5 -2.5t9.5 -2.5q22 -6 42 -11.5t35 -5.5q18 0 25.5 9t13.5 24q0 1 0.5 1.5t0.5 1.5l85 1q-1 -9 -2 -16.5t-2 -15.5q-10 -47 -40.5 -87t-85.5 -40q-11 0 -23 2t-23 6
q-8 2 -16 5t-15 6q-20 6 -38.5 12t-36.5 6q-16 0 -22 -9.5t-10 -22.5q-1 -1 -1.5 -2.5t-0.5 -2.5v1z" />
    <glyph glyph-name="house" unicode="&#x2c9;" horiz-adv-x="603" 
d="M75 752h452v-107h-452v107v0z" />
    <glyph glyph-name="endash" unicode="&#x2d8;" horiz-adv-x="539" 
d="M75 784h112q5 -33 27.5 -50.5t54.5 -17.5q33 0 55.5 17.5t27.5 49.5l111 1q-4 -83 -59 -126.5t-135 -43.5t-134.5 43.5t-59.5 125.5v1z" />
    <glyph glyph-name="sfthyphen" unicode="&#x2d9;" horiz-adv-x="402" 
d="M202 800q41 -1 69.5 -29.5t28.5 -69.5t-28.5 -69.5t-69.5 -28.5t-70 28.5t-29 69.5t29 69.5t70 28.5v1z" />
    <glyph glyph-name="filledbox" unicode="&#x2da;" horiz-adv-x="457" 
d="M227 815q3 -1 6.5 -1h6.5q53 -3 97.5 -28.5t44.5 -86.5t-44 -87t-97 -28h-5.5h-5.5h-8.5t-9.5 1q-51 3 -94 28t-43 85q0 63 45.5 89t100.5 27h3.5h2.5v1zM229 743q-2 -1 -4 -1h-3q-20 -2 -36 -11.5t-16 -31.5t16 -31.5t36 -11.5h3h4h4.5h4.5q19 2 34 12t15 31t-15 31
t-34 12h-4.5h-4.5v1z" />
    <glyph glyph-name="bullet" unicode="&#xb8;" horiz-adv-x="380" 
d="M304 -94l-151 -143l-78 49l130 158l99 -64v0z" />
    <glyph glyph-name="uni02BA" unicode="&#x2ba;" horiz-adv-x="539" 
d="M254 814l-50 -214h-93l14 214h129v0zM428 814l-50 -214h-93l14 214h129v0z" />
    <glyph glyph-name="glyph223" unicode="&#x2db;" horiz-adv-x="350" 
d="M159 0h75v-2q-4 -2 -8.5 -5t-9.5 -6q-16 -12 -29 -28t-13 -35t13.5 -32.5t32.5 -13.5q15 0 28 5.5t26 13.5l-22 -92q-9 -6 -21.5 -10t-24.5 -6q-9 -1 -17.5 -2t-16.5 -1h-4h-4q-33 3 -61 27t-28 59q0 41 25 74.5t59 53.5v0z" />
    <glyph glyph-name="glyph224" unicode="&#x2c7;" horiz-adv-x="590" 
d="M75 744l74 85l144 -112l144 112l77 -85l-221 -163l-218 163v0z" />
    <glyph glyph-name="glyph225" unicode="&#x141;" horiz-adv-x="533" 
d="M296 754v-188l115 83v-164l-115 -78v-241h235v-166h-431v298l-81 -60v160l81 59v297h196v0z" />
    <glyph glyph-name="glyph226" unicode="&#x142;" horiz-adv-x="366" 
d="M273 830v-300l85 60v-165l-85 -56v-369h-182v270l-83 -59v164l83 56v399h182v0z" />
    <glyph glyph-name="glyph227" unicode="&#x160;" horiz-adv-x="616" 
d="M556 712l-78 -152q-27 22 -60.5 35.5t-69.5 13.5q-5 0 -11 -0.5t-12 -2.5q-23 -5 -42 -20t-19 -40q0 -24 18 -38.5t39 -23.5q8 -3 15.5 -5.5t14.5 -4.5l50 -14q79 -24 132.5 -69.5t53.5 -137.5v-8v-8q-2 -52 -19 -101.5t-59 -85.5q-38 -33 -86 -49t-98 -20
q-8 0 -15.5 -0.5t-14.5 -0.5q-71 0 -139 22.5t-126 62.5l84 159q37 -33 80.5 -56t93.5 -23h4h4q33 2 60 20.5t27 55.5q0 28 -22.5 45t-50.5 27q-12 4 -24 7.5t-22 6.5q-2 1 -4.5 1.5t-4.5 1.5q-89 25 -142 64t-53 146q0 115 73.5 184t186.5 69q23 0 47 -2.5t48 -8.5
q38 -8 74.5 -21t66.5 -30v1zM88 985l74 85l144 -112l144 112l77 -85l-221 -163l-218 163v0z" />
    <glyph glyph-name="glyph228" unicode="&#x161;" horiz-adv-x="513" 
d="M460 497l-61 -116q-12 6 -26.5 11t-29.5 8q-11 2 -21.5 3.5t-20.5 1.5q-5 0 -10.5 -0.5t-10.5 -2.5q-14 -3 -25 -10.5t-11 -21.5q0 -17 14.5 -25.5t32.5 -12.5q10 -3 19 -4.5t16 -2.5q64 -13 106.5 -47t42.5 -105q0 -98 -72 -142.5t-159 -47.5h-5.5h-5.5q-55 0 -107.5 15
t-99.5 43l66 128q17 -13 39 -23.5t45 -18.5q16 -5 31 -8t29 -3q4 0 8.5 0.5t9.5 1.5q15 3 27 12t12 25q0 22 -21 31.5t-50 15.5q-11 2 -21.5 4.5t-21.5 5.5q-43 11 -78.5 38.5t-35.5 96.5q0 93 69 137t151 45h3.5h2.5q44 0 86.5 -7.5t82.5 -25.5v1zM37 744l74 85l144 -112
l144 112l77 -85l-221 -163l-218 163v0z" />
    <glyph glyph-name="Zcaron" unicode="&#x17d;" 
 />
    <glyph glyph-name="zcaron" unicode="&#x17e;" 
 />
    <glyph glyph-name="brokenbar" unicode="&#xa6;" 
 />
    <glyph glyph-name="glyph232" unicode="&#xd0;" horiz-adv-x="752" 
d="M64 0v309h-84v154h84v291h278q158 -1 270.5 -110t112.5 -268t-113 -267.5t-270 -108.5h-278v0zM260 588v-125h110v-154h-110v-143h44q88 -1 152.5 49.5t64.5 160.5q0 101 -60 156t-155 55l-46 1v0z" />
    <glyph glyph-name="glyph233" unicode="&#xf0;" horiz-adv-x="662" 
d="M413 770l-99 -66l70 -56q38 -32 73 -65t63 -70q3 -3 5.5 -6.5t4.5 -6.5q34 -44 62 -100t28 -145q0 -8 -0.5 -16t-2.5 -17q-13 -90 -93 -164.5t-193 -74.5q-123 0 -216 70.5t-93 201.5q0 89 45 146.5t99 87.5q26 14 51 22.5t45 11.5q11 2 15.5 6t4.5 10q0 8 -7.5 18.5
t-18.5 22.5q-6 6 -13 12l-14 12q-9 8 -18.5 14.5t-16.5 10.5l-117 -84l-77 59l112 76l-114 70l62 80q42 -16 83.5 -34t80.5 -41l110 75l79 -60v0zM331 372q-48 -1 -82.5 -35.5t-34.5 -81.5q0 -49 34.5 -82t82.5 -33t77.5 33t29.5 82q0 47 -29.5 81.5t-77.5 34.5v1z" />
    <glyph glyph-name="Yacute" unicode="&#xdd;" 
 />
    <glyph glyph-name="yacute" unicode="&#xfd;" 
 />
    <glyph glyph-name="glyph236" unicode="&#xde;" horiz-adv-x="661" 
d="M64 0v754h196v-120h104q122 -1 198 -60t76 -189q0 -133 -69.5 -194.5t-197.5 -61.5l-111 1v-130h-196v0zM260 476v-188h33q53 -1 97 10.5t44 80.5q0 71 -42 83.5t-99 12.5l-33 1v0z" />
    <glyph glyph-name="glyph237" unicode="&#xfe;" horiz-adv-x="682" 
d="M242 830v-375h2q23 35 62 53.5t81 20.5h6h6q115 0 187 -82.5t72 -192.5q0 -111 -71.5 -191t-185.5 -80h-7.5h-7.5q-40 3 -78.5 18.5t-65.5 46.5v-304h-182v1086h182v0zM353 372q-48 -1 -82.5 -35.5t-34.5 -81.5q0 -49 34.5 -82t82.5 -33t82.5 33t34.5 82q0 47 -34.5 81.5
t-82.5 34.5v1z" />
    <glyph glyph-name="minus" unicode="&#x2212;" 
 />
    <glyph glyph-name="multiply" unicode="&#xd7;" 
 />
    <glyph glyph-name="uni00B9" unicode="&#xb9;" 
 />
    <glyph glyph-name="uni00B2" unicode="&#xb2;" 
 />
    <glyph glyph-name="uni00B3" unicode="&#xb3;" 
 />
    <glyph glyph-name="glyph243" unicode="&#xbd;" horiz-adv-x="1029" 
d="M617 754h98l-438 -754h-98l438 754v0zM845 165l-76 -66h160v-99h-394l201 201q21 20 38.5 49.5t17.5 60.5v2.5v2.5q-2 20 -17.5 36.5t-38.5 16.5q-26 0 -40 -16t-14 -39q0 -4 0.5 -9t1.5 -10l-140 1q3 77 53.5 125t137.5 48q77 0 133 -43.5t56 -117.5q0 -41 -15 -70
t-43 -55q-5 -5 -10 -9.5t-11 -9.5v1zM170 655h-70v99h197v-452h-127v353v0z" />
    <glyph glyph-name="onequarter" unicode="&#xbc;" 
 />
    <glyph glyph-name="threequarters" unicode="&#xbe;" 
 />
    <glyph glyph-name="franc" unicode="&#x20a3;" 
 />
    <glyph glyph-name="Gbreve" unicode="&#x11e;" 
 />
    <glyph glyph-name="gbreve" unicode="&#x11f;" 
 />
    <glyph glyph-name="Idotaccent" unicode="&#x130;" 
 />
    <glyph glyph-name="Scedilla" unicode="&#x15e;" 
 />
    <glyph glyph-name="scedilla" unicode="&#x15f;" 
 />
    <glyph glyph-name="Cacute" unicode="&#x106;" 
 />
    <glyph glyph-name="cacute" unicode="&#x107;" 
 />
    <glyph glyph-name="Ccaron" unicode="&#x10c;" 
 />
    <glyph glyph-name="ccaron" unicode="&#x10d;" 
 />
    <glyph glyph-name="dcroat" unicode="&#x111;" 
 />
    <glyph glyph-name="glyph257" unicode="&#x2192;" horiz-adv-x="500" 
 />
    <glyph glyph-name="glyph258" unicode="&#x2302;" 
 />
    <glyph glyph-name="glyph259" unicode="&#x2013;" horiz-adv-x="500" 
d="M0 396h500v-150h-500v150v0z" />
    <glyph glyph-name="uni00AD" unicode="&#xad;" horiz-adv-x="500" 
 />
    <glyph glyph-name="glyph261" unicode="&#x25a0;" horiz-adv-x="500" 
 />
    <glyph glyph-name="glyph262" unicode="&#x2022;" horiz-adv-x="686" 
d="M344 566q81 -1 134.5 -56.5t53.5 -133.5q0 -77 -53.5 -132.5t-134.5 -55.5t-135 55.5t-54 132.5q0 78 54 133.5t135 55.5v1z" />
    <glyph glyph-name="glyph263" unicode="&#xaf;" 
 />
    <glyph glyph-name="glyph264" unicode="&#xb0;" 
 />
    <glyph glyph-name="glyph265" unicode="&#xb7;" 
 />
    <glyph glyph-name="underscoredbl" unicode="&#x2017;" 
 />
    <glyph glyph-name="exclamdbl" unicode="&#x203c;" 
 />
    <glyph glyph-name="uni207F" unicode="&#x207f;" 
 />
    <glyph glyph-name="peseta" unicode="&#x20a7;" 
 />
    <glyph glyph-name="Gamma" unicode="&#x393;" 
 />
    <glyph glyph-name="Theta" unicode="&#x398;" 
 />
    <glyph glyph-name="Phi" unicode="&#x3a6;" 
 />
    <glyph glyph-name="alpha" unicode="&#x3b1;" 
 />
    <glyph glyph-name="delta" unicode="&#x3b4;" 
 />
    <glyph glyph-name="epsilon" unicode="&#x3b5;" 
 />
    <glyph glyph-name="sigma" unicode="&#x3c3;" 
 />
    <glyph glyph-name="tau" unicode="&#x3c4;" 
 />
    <glyph glyph-name="phi" unicode="&#x3c6;" 
 />
    <glyph glyph-name="arrowleft" unicode="&#x2190;" 
 />
    <glyph glyph-name="arrowup" unicode="&#x2191;" 
 />
    <glyph glyph-name="arrowdown" unicode="&#x2193;" 
 />
    <glyph glyph-name="arrowboth" unicode="&#x2194;" 
 />
    <glyph glyph-name="arrowupdn" unicode="&#x2195;" 
 />
    <glyph glyph-name="arrowupdnbse" unicode="&#x21a8;" 
 />
    <glyph glyph-name="orthogonal" unicode="&#x221f;" 
 />
    <glyph glyph-name="intersection" unicode="&#x2229;" 
 />
    <glyph glyph-name="equivalence" unicode="&#x2261;" 
 />
    <glyph glyph-name="revlogicalnot" unicode="&#x2310;" 
 />
    <glyph glyph-name="integraltp" unicode="&#x2320;" 
 />
    <glyph glyph-name="integralbt" unicode="&#x2321;" 
 />
    <glyph glyph-name="filledrect" unicode="&#x25ac;" 
 />
    <glyph glyph-name="circle" unicode="&#x25cb;" 
 />
    <glyph glyph-name="triagup" unicode="&#x25b2;" 
 />
    <glyph glyph-name="triagrt" unicode="&#x25ba;" 
 />
    <glyph glyph-name="triagdn" unicode="&#x25bc;" 
 />
    <glyph glyph-name="triaglf" unicode="&#x25c4;" 
 />
    <glyph glyph-name="invbullet" unicode="&#x25d8;" 
 />
    <glyph glyph-name="invcircle" unicode="&#x25d9;" 
 />
    <glyph glyph-name="Rcaron" unicode="&#x158;" 
 />
    <glyph glyph-name="upblock" unicode="&#x2580;" 
 />
    <glyph glyph-name="dnblock" unicode="&#x2584;" 
 />
    <glyph glyph-name="block" unicode="&#x2588;" 
 />
    <glyph glyph-name="lfblock" unicode="&#x258c;" 
 />
    <glyph glyph-name="rtblock" unicode="&#x2590;" 
 />
    <glyph glyph-name="ltshade" unicode="&#x2591;" 
 />
    <glyph glyph-name="shade" unicode="&#x2592;" 
 />
    <glyph glyph-name="dkshade" unicode="&#x2593;" 
 />
    <glyph glyph-name="smileface" unicode="&#x263a;" 
 />
    <glyph glyph-name="invsmileface" unicode="&#x263b;" 
 />
    <glyph glyph-name="sun" unicode="&#x263c;" 
 />
    <glyph glyph-name="female" unicode="&#x2640;" 
 />
    <glyph glyph-name="male" unicode="&#x2642;" 
 />
    <glyph glyph-name="spade" unicode="&#x2660;" 
 />
    <glyph glyph-name="club" unicode="&#x2663;" 
 />
    <glyph glyph-name="heart" unicode="&#x2665;" 
 />
    <glyph glyph-name="diamond" unicode="&#x2666;" 
 />
    <glyph glyph-name="musicalnote" unicode="&#x266a;" 
 />
    <glyph glyph-name="musicalnotedbl" unicode="&#x266b;" 
 />
    <glyph glyph-name="Abreve" unicode="&#x102;" 
 />
    <glyph glyph-name="abreve" unicode="&#x103;" 
 />
    <glyph glyph-name="Aogonek" unicode="&#x104;" 
 />
    <glyph glyph-name="aogonek" unicode="&#x105;" 
 />
    <glyph glyph-name="Dcaron" unicode="&#x10e;" 
 />
    <glyph glyph-name="dcaron" unicode="&#x10f;" 
 />
    <glyph glyph-name="Dcroat" unicode="&#x110;" 
 />
    <glyph glyph-name="Eogonek" unicode="&#x118;" 
 />
    <glyph glyph-name="eogonek" unicode="&#x119;" 
 />
    <glyph glyph-name="Ecaron" unicode="&#x11a;" 
 />
    <glyph glyph-name="ecaron" unicode="&#x11b;" 
 />
    <glyph glyph-name="Lacute" unicode="&#x139;" 
 />
    <glyph glyph-name="lacute" unicode="&#x13a;" 
 />
    <glyph glyph-name="Lcaron" unicode="&#x13d;" 
 />
    <glyph glyph-name="lcaron" unicode="&#x13e;" 
 />
    <glyph glyph-name="Nacute" unicode="&#x143;" 
 />
    <glyph glyph-name="nacute" unicode="&#x144;" 
 />
    <glyph glyph-name="Ncaron" unicode="&#x147;" 
 />
    <glyph glyph-name="ncaron" unicode="&#x148;" 
 />
    <glyph glyph-name="Ohungarumlaut" unicode="&#x150;" 
 />
    <glyph glyph-name="ohungarumlaut" unicode="&#x151;" 
 />
    <glyph glyph-name="Racute" unicode="&#x154;" 
 />
    <glyph glyph-name="racute" unicode="&#x155;" 
 />
    <glyph glyph-name="rcaron" unicode="&#x159;" 
 />
    <glyph glyph-name="Sacute" unicode="&#x15a;" 
 />
    <glyph glyph-name="sacute" unicode="&#x15b;" 
 />
    <glyph glyph-name="uni0162" unicode="&#x162;" 
 />
    <glyph glyph-name="uni0163" unicode="&#x163;" 
 />
    <glyph glyph-name="Tcaron" unicode="&#x164;" 
 />
    <glyph glyph-name="tcaron" unicode="&#x165;" 
 />
    <glyph glyph-name="Uring" unicode="&#x16e;" 
 />
    <glyph glyph-name="uring" unicode="&#x16f;" 
 />
    <glyph glyph-name="uhungarumlaut" unicode="&#x171;" 
 />
    <glyph glyph-name="Uhungarumlaut" unicode="&#x170;" 
 />
    <glyph glyph-name="Zacute" unicode="&#x179;" 
 />
    <glyph glyph-name="zacute" unicode="&#x17a;" 
 />
    <glyph glyph-name="Zdotaccent" unicode="&#x17b;" 
 />
    <glyph glyph-name="zdotaccent" unicode="&#x17c;" 
 />
    <glyph glyph-name="Ldot" unicode="&#x13f;" 
 />
    <glyph glyph-name="ldot" unicode="&#x140;" 
 />
    <glyph glyph-name="SF100000" unicode="&#x2500;" 
 />
    <glyph glyph-name="SF110000" unicode="&#x2502;" 
 />
    <glyph glyph-name="SF010000" unicode="&#x250c;" 
 />
    <glyph glyph-name="SF030000" unicode="&#x2510;" 
 />
    <glyph glyph-name="SF020000" unicode="&#x2514;" 
 />
    <glyph glyph-name="SF040000" unicode="&#x2518;" 
 />
    <glyph glyph-name="SF080000" unicode="&#x251c;" 
 />
    <glyph glyph-name="SF090000" unicode="&#x2524;" 
 />
    <glyph glyph-name="SF060000" unicode="&#x252c;" 
 />
    <glyph glyph-name="SF070000" unicode="&#x2534;" 
 />
    <glyph glyph-name="SF050000" unicode="&#x253c;" 
 />
    <glyph glyph-name="SF430000" unicode="&#x2550;" 
 />
    <glyph glyph-name="SF240000" unicode="&#x2551;" 
 />
    <glyph glyph-name="SF510000" unicode="&#x2552;" 
 />
    <glyph glyph-name="SF520000" unicode="&#x2553;" 
 />
    <glyph glyph-name="SF390000" unicode="&#x2554;" 
 />
    <glyph glyph-name="SF220000" unicode="&#x2555;" 
 />
    <glyph glyph-name="SF210000" unicode="&#x2556;" 
 />
    <glyph glyph-name="SF250000" unicode="&#x2557;" 
 />
    <glyph glyph-name="SF500000" unicode="&#x2558;" 
 />
    <glyph glyph-name="SF490000" unicode="&#x2559;" 
 />
    <glyph glyph-name="SF380000" unicode="&#x255a;" 
 />
    <glyph glyph-name="SF280000" unicode="&#x255b;" 
 />
    <glyph glyph-name="SF270000" unicode="&#x255c;" 
 />
    <glyph glyph-name="SF260000" unicode="&#x255d;" 
 />
    <glyph glyph-name="SF360000" unicode="&#x255e;" 
 />
    <glyph glyph-name="SF370000" unicode="&#x255f;" 
 />
    <glyph glyph-name="SF420000" unicode="&#x2560;" 
 />
    <glyph glyph-name="SF190000" unicode="&#x2561;" 
 />
    <glyph glyph-name="SF200000" unicode="&#x2562;" 
 />
    <glyph glyph-name="SF230000" unicode="&#x2563;" 
 />
    <glyph glyph-name="SF470000" unicode="&#x2564;" 
 />
    <glyph glyph-name="SF480000" unicode="&#x2565;" 
 />
    <glyph glyph-name="SF410000" unicode="&#x2566;" 
 />
    <glyph glyph-name="SF450000" unicode="&#x2567;" 
 />
    <glyph glyph-name="SF460000" unicode="&#x2568;" 
 />
    <glyph glyph-name="SF400000" unicode="&#x2569;" 
 />
    <glyph glyph-name="SF540000" unicode="&#x256a;" 
 />
    <glyph glyph-name="SF530000" unicode="&#x256b;" 
 />
    <glyph glyph-name="SF440000" unicode="&#x256c;" 
 />
    </font>
</defs>
</svg>
